<?xml version="1.0" standalone="no"?>
<!DOCTYPE svg PUBLIC "-//W3C//DTD SVG 1.1//EN" "http://www.w3.org/Graphics/SVG/1.1/DTD/svg11.dtd" >
<svg xmlns="http://www.w3.org/2000/svg" xmlns:xlink="http://www.w3.org/1999/xlink" version="1.1">
<metadata>
Created by FontForge 20170731 at Wed Oct 21 18:49:17 2020
 By Aleksey,,,
Copyright (c) 2018 by Benjamin Critton &#38; Colophon Foundry. All rights reserved.
</metadata>
<defs>
<font id="MabryPro-Medium" horiz-adv-x="0" >
  <font-face 
    font-family="Mabry Pro"
    font-weight="500"
    font-stretch="normal"
    units-per-em="2048"
    panose-1="2 13 6 3 4 0 2 4 3 3"
    ascent="1622"
    descent="-426"
    x-height="971"
    cap-height="1434"
    bbox="-1667 -561 3666 2171"
    underline-thickness="126"
    underline-position="-454"
    unicode-range="U+000D-1F610"
  />
<missing-glyph horiz-adv-x="1208" 
d="M92 0v1434h1024v-1434h-1024zM604 852l277 448h-553zM225 1198v-962l295 481zM983 236v962l-297 -481zM328 133h553l-277 449z" />
    <glyph glyph-name="f_f" unicode="ff" horiz-adv-x="1310" 
d="M233 0v786h-215v185h215v155q0 147 98 237.5t257 90.5q89 0 157.5 -30.5t98.5 -80.5q36 51 98.5 81t136.5 30q166 0 253 -84.5t87 -218.5q0 -37 -2 -47h-205q5 35 5 41q0 57 -36.5 91t-101.5 34q-62 0 -97.5 -39.5t-35.5 -110.5v-149h266v-185h-266v-786h-215v786h-282
v-786h-216zM449 971h282v145q0 154 -139 154q-67 0 -105 -42t-38 -112v-145z" />
    <glyph glyph-name="fi" unicode="fi" horiz-adv-x="1064" 
d="M944 971v-971h-215v786h-283v-786h-215v786h-213v185h213v155q0 147 95 237.5t254 90.5q166 0 253 -84.5t87 -218.5q0 -37 -2 -47h-205q4 28 4 41q0 57 -36 91t-101 34q-62 0 -98 -39.5t-36 -110.5v-149h498z" />
    <glyph glyph-name="fl" unicode="fl" horiz-adv-x="1077" 
d="M233 0v786h-215v185h215v155q0 147 92 237.5t265 90.5t264.5 -90.5t91.5 -237.5v-1126h-215v1116q0 70 -35.5 112t-105.5 42t-105.5 -42t-35.5 -112v-145h184v-185h-184v-786h-216z" />
    <glyph glyph-name="f_f_i" unicode="ffi" horiz-adv-x="1564" 
d="M233 0v786h-215v185h215v155q0 147 98 237.5t257 90.5q87 0 154 -28.5t102 -82.5q36 52 97 81.5t138 29.5q166 0 253 -84.5t87 -218.5q0 -37 -2 -47h-205q5 35 5 41q0 57 -36.5 91t-101.5 34q-62 0 -97.5 -39.5t-35.5 -110.5v-149h498v-971h-215v786h-283v-786h-215v786
h-282v-786h-216zM449 971h282v145q0 154 -139 154q-67 0 -105 -42t-38 -112v-145z" />
    <glyph glyph-name="f_f_l" unicode="ffl" horiz-adv-x="1574" 
d="M233 0v786h-215v185h215v155q0 147 98 237.5t257 90.5q86 0 152.5 -28.5t101.5 -82.5q36 50 102 80.5t143 30.5q173 0 265 -90.5t92 -237.5v-1126h-215v1116q0 70 -36 112t-106 42t-105.5 -42t-35.5 -112v-145h184v-185h-184v-786h-215v786h-282v-786h-216zM449 971h282
v145q0 154 -139 154q-67 0 -105 -42t-38 -112v-145z" />
    <glyph glyph-name=".notdef" horiz-adv-x="1208" 
d="M92 0v1434h1024v-1434h-1024zM604 852l277 448h-553zM225 1198v-962l295 481zM983 236v962l-297 -481zM328 133h553l-277 449z" />
    <glyph glyph-name=".null" 
 />
    <glyph glyph-name="nonmarkingreturn" horiz-adv-x="682" 
 />
    <glyph glyph-name="CR" unicode="&#xd;" horiz-adv-x="491" 
 />
    <glyph glyph-name="space" unicode=" " horiz-adv-x="491" 
 />
    <glyph glyph-name="exclam" unicode="!" horiz-adv-x="499" 
d="M147 369v1065h205v-1065h-205zM127 0v246h246v-246h-246z" />
    <glyph glyph-name="quotedbl" unicode="&#x22;" horiz-adv-x="786" 
d="M158 942l-52 287v205h226v-205l-51 -287h-123zM506 942l-51 287v205h225v-205l-51 -287h-123z" />
    <glyph glyph-name="numbersign" unicode="#" horiz-adv-x="1617" 
d="M410 410h-308v194h347l45 225h-330v195h368l82 410h205l-82 -410h246l82 410h205l-82 -410h328v-195h-367l-45 -225h350v-194h-389l-82 -410h-205l82 410h-246l-82 -410h-204zM653 604h246l45 225h-246z" />
    <glyph glyph-name="dollar" unicode="$" horiz-adv-x="1294" 
d="M776 -16v-185h-194v187q-188 26 -329 133.5t-204 300.5l205 112q76 -284 328 -337v448q-206 51 -308 152.5t-102 269.5q0 143 114 253.5t296 131.5v184h194v-190q145 -25 253 -113t157 -225l-195 -102q-55 180 -215 227v-416q451 -88 451 -405q0 -177 -121 -291.5
t-330 -134.5zM582 858v387q-91 -13 -143 -62t-52 -118q0 -77 48.5 -126t146.5 -81zM1012 389q0 81 -54.5 132t-181.5 83v-414q110 13 173 68.5t63 130.5z" />
    <glyph glyph-name="percent" unicode="%" horiz-adv-x="1744" 
d="M74 1092q0 157 100.5 259.5t261.5 102.5t262 -102.5t101 -259.5t-101 -260t-262 -103t-261.5 103t-100.5 260zM623 1092q0 91 -51 144.5t-136 53.5t-135.5 -53.5t-50.5 -144.5t50.5 -145t135.5 -54t136 54t51 145zM420 164l-121 123l1022 979l121 -123zM946 342
q0 157 101 260t262 103t261.5 -103t100.5 -260t-100.5 -259.5t-261.5 -102.5t-262 102.5t-101 259.5zM1495 342q0 91 -50.5 145t-135.5 54t-136 -54t-51 -145t51 -145t136 -54t135.5 54t50.5 145z" />
    <glyph glyph-name="ampersand" unicode="&#x26;" horiz-adv-x="1673" 
d="M1464 256l144 -133q-89 -143 -277 -143q-88 0 -152.5 26.5t-131.5 91.5q-173 -118 -422 -118q-242 0 -382.5 123.5t-140.5 326.5q0 288 301 414q-96 131 -96 262q0 158 107 252q110 96 282 96q164 0 266.5 -93.5t102.5 -234.5q0 -125 -81 -218t-243 -148l318 -359
q113 174 119 459l204 -20q-15 -369 -184 -596q37 -40 68.5 -55t74.5 -15q41 0 73 22.5t50 59.5zM512 1106q0 -57 22 -99.5t76 -101.5q137 40 188.5 88.5t51.5 124.5q0 65 -43 108.5t-119 43.5q-75 0 -125.5 -46t-50.5 -118zM645 184q145 0 262 66l-379 444
q-115 -46 -163 -108.5t-48 -155.5q0 -112 86 -179t242 -67z" />
    <glyph glyph-name="quotesingle" unicode="'" horiz-adv-x="438" 
d="M158 942l-52 287v205h226v-205l-51 -287h-123z" />
    <glyph glyph-name="parenleft" unicode="(" horiz-adv-x="854" 
d="M86 717q0 352 168 608t477 406l82 -164q-543 -264 -543 -850t543 -850l-82 -164q-309 150 -477 406t-168 608z" />
    <glyph glyph-name="parenright" unicode=")" horiz-adv-x="854" 
d="M584 717q0 586 -543 850l82 164q309 -150 477 -406t168 -608t-168 -608t-477 -406l-82 164q543 264 543 850z" />
    <glyph glyph-name="asterisk" unicode="*" horiz-adv-x="909" 
d="M367 1485h176v-144l-66 -196l176 129l138 45l53 -168l-135 -45h-220l177 -121l84 -117l-146 -104l-84 117l-65 211l-66 -211l-84 -117l-145 104l84 117l176 121h-219l-135 45l53 168l137 -45l176 -129l-65 196v144z" />
    <glyph glyph-name="plus" unicode="+" horiz-adv-x="1167" 
d="M123 707h369v368h184v-368h368v-185h-368v-368h-184v368h-369v185z" />
    <glyph glyph-name="comma" unicode="," horiz-adv-x="499" 
d="M55 -225l21 123q46 -21 92 -21q82 0 82 62q0 61 -70 61h-53v246h246v-307q0 -99 -53.5 -142t-151.5 -43q-66 0 -113 21z" />
    <glyph glyph-name="hyphen" unicode="-" horiz-adv-x="749" 
d="M98 614h553v-194h-553v194z" />
    <glyph glyph-name="period" unicode="." horiz-adv-x="499" 
d="M127 246h246v-246h-246v246z" />
    <glyph glyph-name="slash" unicode="/" horiz-adv-x="1064" 
d="M793 1702l174 -64l-695 -1906l-174 63z" />
    <glyph glyph-name="zero" unicode="0" horiz-adv-x="1323" 
d="M78 717q0 337 158 537t426 200t425.5 -200t157.5 -537t-157.5 -537t-425.5 -200t-426 200t-158 537zM1030 717q0 239 -96 391t-272 152q-179 0 -275 -152q-94 -149 -94 -391q0 -244 94 -393q95 -150 275 -150q176 0 272 152t96 391z" />
    <glyph glyph-name="one" unicode="1" horiz-adv-x="802" 
d="M440 0v1116q-31 -95 -140 -172.5t-218 -83.5l-41 236q170 18 281 103.5t139 234.5h194v-1434h-215z" />
    <glyph glyph-name="two" unicode="2" horiz-adv-x="1206" 
d="M477 573q27 15 111 58q123 62 170 94q139 93 139 252q0 125 -84 204t-223 79q-128 0 -212.5 -80t-84.5 -193q0 -107 82 -199l-185 -122q-112 139 -112 317q0 96 38.5 182.5t106 150t166 101t211.5 37.5q239 0 375.5 -129t136.5 -336q0 -108 -39 -195.5t-104 -149.5
t-164 -120l-111 -59q-142 -75 -217 -129q-72 -53 -90 -131h725v-205h-1003q0 217 98 348q101 131 270 225z" />
    <glyph glyph-name="three" unicode="3" horiz-adv-x="1179" 
d="M41 410l205 92q7 -142 99 -230t233 -88q132 0 218.5 82t86.5 211q0 130 -84 210.5t-215 80.5q-123 0 -195 -72l-123 154l451 379h-615v205h932v-174l-420 -349q35 7 68 7q75 0 149 -30.5t133.5 -84.5t96.5 -138.5t37 -183.5q0 -220 -146.5 -360.5t-373.5 -140.5
q-219 0 -361.5 118t-175.5 312z" />
    <glyph glyph-name="four" unicode="4" horiz-adv-x="1198" 
d="M715 0v348h-645v225q69 72 115.5 128t81.5 114.5t55 108t32.5 117.5t16.5 134.5t6 165.5v93h215v-93q0 -256 -62 -442q-62 -183 -235 -356h420v448h215v-448h235v-195h-235v-348h-215z" />
    <glyph glyph-name="five" unicode="5" horiz-adv-x="1236" 
d="M1083 1434v-205h-706q0 -170 -45 -408q57 67 149.5 108.5t194.5 41.5q208 0 343.5 -126.5t135.5 -342.5q0 -230 -143.5 -376t-388.5 -146q-137 0 -251.5 48.5t-191 147.5t-90.5 234l215 61q18 -134 99 -210.5t219 -76.5q146 0 231.5 83.5t85.5 213.5q0 131 -83.5 214
t-223.5 83q-95 0 -176 -50.5t-111 -123.5l-235 53q61 387 61 777h911z" />
    <glyph glyph-name="six" unicode="6" horiz-adv-x="1220" 
d="M78 707q0 125 22.5 236.5t69 205t113.5 161.5t160.5 106t205.5 38q208 0 333.5 -100t156.5 -281l-205 -65q-26 131 -97 191.5t-198 60.5q-69 0 -129.5 -30.5t-110 -91t-78 -161t-28.5 -229.5v-31q47 89 151 147t222 58q104 0 191.5 -39t144 -103t87.5 -144.5t31 -164.5
q0 -217 -138 -354t-347 -137q-178 0 -305.5 95t-189.5 257t-62 375zM905 451q0 123 -80.5 199.5t-210.5 76.5q-110 0 -190 -77t-80 -189q0 -123 82 -199q84 -78 209 -78q116 0 192 76q78 78 78 191z" />
    <glyph glyph-name="seven" unicode="7" horiz-adv-x="1083" 
d="M66 1434h952v-185q-232 -151 -345.5 -373t-113.5 -546q0 -144 25 -330h-242q-18 141 -18 270q0 313 103.5 555.5t301.5 403.5h-663v205z" />
    <glyph glyph-name="eight" unicode="8" horiz-adv-x="1208" 
d="M82 410q0 138 71.5 242t204.5 147q-97 44 -145.5 117.5t-48.5 168.5q0 158 120.5 263.5t319.5 105.5t319.5 -105.5t120.5 -263.5q0 -95 -48.5 -168.5t-145.5 -117.5q133 -43 204.5 -147t71.5 -242q0 -87 -34.5 -164.5t-99 -137t-165 -94t-223.5 -34.5t-223.5 34.5
t-165 94t-99 137t-34.5 164.5zM840 1075q0 79 -66.5 132t-169.5 53t-169 -53t-66 -132q0 -87 65 -140.5t170 -53.5q106 0 171 54t65 140zM911 440q0 109 -86 183q-85 73 -221 73t-221 -73q-86 -74 -86 -183q0 -112 84 -184t223 -72t223 72t84 184z" />
    <glyph glyph-name="nine" unicode="9" horiz-adv-x="1226" 
d="M82 410l215 61q13 -141 92.5 -214t214.5 -73q164 0 252 135t88 379q0 62 -2 80q-42 -124 -137 -195t-232 -71q-110 0 -199.5 38.5t-145.5 103t-85.5 144t-29.5 165.5q0 218 136 354.5t345 136.5q290 0 422 -211q133 -210 133 -528q0 -299 -127 -518q-126 -217 -428 -217
q-216 0 -351 121t-161 309zM881 983q0 116 -78 197q-77 80 -199 80q-121 0 -198.5 -81t-77.5 -206q0 -121 75.5 -193.5t200.5 -72.5q123 0 200 76.5t77 199.5z" />
    <glyph glyph-name="colon" unicode=":" horiz-adv-x="499" 
d="M127 676v246h246v-246h-246zM127 0v246h246v-246h-246z" />
    <glyph glyph-name="semicolon" unicode=";" horiz-adv-x="499" 
d="M127 676v246h246v-246h-246zM55 -225l21 123q46 -21 92 -21q82 0 82 62q0 61 -70 61h-53v246h246v-307q0 -99 -53.5 -142t-151.5 -43q-66 0 -113 21z" />
    <glyph glyph-name="less" unicode="&#x3c;" horiz-adv-x="1167" 
d="M1044 123l-921 399v185l921 399v-225l-655 -267l655 -266v-225z" />
    <glyph glyph-name="equal" unicode="=" horiz-adv-x="1167" 
d="M123 870h921v-184h-921v184zM123 543h921v-185h-921v185z" />
    <glyph glyph-name="greater" unicode="&#x3e;" horiz-adv-x="1167" 
d="M123 123v225l655 266l-655 267v225l921 -399v-185z" />
    <glyph glyph-name="question" unicode="?" horiz-adv-x="991" 
d="M164 666q0 264 344 323q110 20 159.5 58t49.5 100q0 58 -55 95.5t-150 37.5q-101 0 -174 -60.5t-102 -175.5l-175 93q53 156 173 236.5t288 80.5q187 0 293.5 -81t106.5 -216q0 -130 -83.5 -209t-275.5 -123q-101 -24 -147.5 -60.5t-46.5 -96.5q0 -51 38.5 -84t98.5 -33
q146 0 199 170l174 -96q-102 -246 -371 -246q-156 0 -250 80.5t-94 206.5zM389 0v246h246v-246h-246z" />
    <glyph glyph-name="at" unicode="@" horiz-adv-x="1732" 
d="M1339 215q67 0 102.5 75.5t35.5 211.5q0 289 -154.5 438.5t-454.5 149.5q-115 2 -225 -44t-193 -125.5t-133 -194t-47 -241.5q0 -140 46.5 -255.5t127 -191t186.5 -116.5t226 -41q186 0 348 113l82 -154q-97 -64 -197 -93.5t-237 -29.5q-153 -2 -291 48.5t-245 145
t-169.5 243.5t-60.5 331q-3 156 57 298.5t164.5 246.5t252 164.5t310.5 58.5q231 0 407 -86t273 -247t97 -375q0 -241 -81.5 -367.5t-219.5 -126.5q-83 0 -138.5 43.5t-74.5 118.5q-101 -162 -304 -162q-176 0 -287.5 121t-111.5 307q0 188 116 314.5t283 126.5
q80 0 145 -30t103 -81v86h185v-600q0 -36 22 -58t55 -22zM848 756q-100 0 -167 -78t-67 -199q0 -119 66 -191.5t168 -72.5q99 0 167 72.5t68 191.5q0 121 -70 199t-165 78z" />
    <glyph glyph-name="A" unicode="A" horiz-adv-x="1540" 
d="M25 0l589 1434h312l590 -1434h-254l-138 348h-708l-137 -348h-254zM496 553h548l-274 694z" />
    <glyph glyph-name="B" unicode="B" horiz-adv-x="1429" 
d="M147 0v1434h676q197 0 329 -109.5t132 -269.5q0 -106 -58 -188.5t-167 -129.5q129 -31 202.5 -122.5t73.5 -225.5q0 -166 -136 -277.5t-335 -111.5h-717zM373 840h440q121 0 183.5 50t62.5 144q0 86 -69 135.5t-177 49.5h-440v-379zM373 215h481q109 0 177.5 56.5
t68.5 148.5q0 90 -69 152.5t-177 62.5h-481v-420z" />
    <glyph glyph-name="C" unicode="C" horiz-adv-x="1605" 
d="M322 717q0 -247 135 -390t356 -143q224 0 356 129t166 322l205 -82q-57 -257 -248.5 -415t-478.5 -158q-211 -3 -379 94.5t-259 266.5t-89 376q-3 152 53.5 289.5t153.5 236.5t233.5 156.5t286.5 54.5q133 0 245 -38.5t190.5 -105.5t131.5 -152.5t78 -184.5l-205 -92
q-33 167 -147.5 267.5t-292.5 100.5q-213 0 -352 -147t-139 -385z" />
    <glyph glyph-name="D" unicode="D" horiz-adv-x="1492" 
d="M147 0v1434h543q226 0 390 -94t245.5 -256.5t81.5 -376.5q0 -152 -48.5 -281.5t-138.5 -224t-226.5 -148t-303.5 -53.5h-543zM373 1229v-1024h317q116 0 210 40t155 109t94 159.5t33 193.5q0 233 -128.5 377.5t-363.5 144.5h-317z" />
    <glyph glyph-name="E" unicode="E" horiz-adv-x="1314" 
d="M147 1434h1045v-215h-819v-369h757v-215h-757v-420h839v-215h-1065v1434z" />
    <glyph glyph-name="F" unicode="F" horiz-adv-x="1280" 
d="M147 1434h1035v-215h-809v-410h747v-215h-747v-594h-226v1434z" />
    <glyph glyph-name="G" unicode="G" horiz-adv-x="1619" 
d="M793 -20q-199 -3 -362 92.5t-255.5 265.5t-89.5 379q-2 152 53.5 289.5t151 236.5t230 156.5t282.5 54.5q280 0 457 -139q176 -136 235 -363l-225 -71q-36 177 -155.5 267.5t-305.5 90.5q-134 0 -244.5 -65t-176.5 -185t-66 -272q0 -227 140 -374.5t351 -147.5
q73 0 137.5 21t110.5 55.5t82 80.5t56.5 94t29.5 97h-621v215h897v-758h-192v305q-153 -325 -520 -325z" />
    <glyph glyph-name="H" unicode="H" horiz-adv-x="1523" 
d="M1151 604h-778v-604h-226v1434h226v-625h778v625h225v-1434h-225v604z" />
    <glyph glyph-name="I" unicode="I" horiz-adv-x="520" 
d="M147 0v1434h226v-1434h-226z" />
    <glyph glyph-name="J" unicode="J" horiz-adv-x="1232" 
d="M877 1434h225v-953q0 -210 -119 -356q-118 -145 -383 -145q-235 0 -368.5 137.5t-133.5 353.5q0 137 62 246l215 -82q-51 -74 -51 -184q0 -112 79 -184t197 -72q136 0 206.5 83.5t70.5 229.5v926z" />
    <glyph glyph-name="K" unicode="K" horiz-adv-x="1406" 
d="M807 872l559 -872h-276l-443 702l-274 -292v-410h-226v1434h226v-711l665 711h297z" />
    <glyph glyph-name="L" unicode="L" horiz-adv-x="1314" 
d="M147 1434h226v-1219h860v-215h-1086v1434z" />
    <glyph glyph-name="M" unicode="M" horiz-adv-x="1933" 
d="M1786 0h-225v1309l-420 -1309h-348l-420 1309v-1309h-226v1434h420l400 -1260l399 1260h420v-1434z" />
    <glyph glyph-name="N" unicode="N" horiz-adv-x="1579" 
d="M373 1270v-1270h-226v1434h392l667 -1272v1272h226v-1434h-392z" />
    <glyph glyph-name="O" unicode="O" horiz-adv-x="1667" 
d="M834 1454q151 3 290.5 -56t240.5 -159t160 -237t56 -285q3 -148 -56 -285.5t-160 -237.5t-240.5 -158.5t-290.5 -55.5q-151 -3 -290.5 55.5t-240.5 158.5t-160.5 237.5t-56.5 285.5q-3 147 56.5 284.5t160.5 237.5t240.5 159t290.5 56zM834 195q141 0 257.5 65.5
t185.5 185.5t69 271q0 229 -146.5 375.5t-365.5 146.5t-365.5 -148t-146.5 -376q0 -229 148 -374.5t364 -145.5z" />
    <glyph glyph-name="P" unicode="P" horiz-adv-x="1363" 
d="M373 573v-573h-226v1434h666q215 0 338 -124t123 -306q0 -85 -31 -162t-87.5 -137t-145.5 -96t-197 -36h-440zM373 788h420q109 0 177 59t68 157t-67.5 156.5t-177.5 58.5h-420v-431z" />
    <glyph glyph-name="Q" unicode="Q" horiz-adv-x="1667" 
d="M1067 14q-112 -34 -233 -34q-151 -3 -290.5 55.5t-240.5 158.5t-160.5 237.5t-56.5 285.5q-3 147 56.5 284.5t160.5 237.5t240.5 159t290.5 56q151 3 290.5 -56t240.5 -159t160 -237t56 -285q0 -188 -86.5 -348.5t-239.5 -264.5q59 -114 203 -114q88 0 144 41l71 -195
q-91 -61 -235 -61q-130 0 -229 62t-142 177zM535 379q0 134 94.5 220.5t234.5 86.5q152 0 243 -85.5t110 -242.5q129 145 129 359q0 229 -146.5 375.5t-365.5 146.5t-365.5 -148t-146.5 -376q0 -145 61.5 -260.5t169.5 -182.5q-18 52 -18 107zM1036 233q-9 269 -192 269
q-68 0 -112 -42t-44 -108q0 -71 41 -114t105 -43q119 0 202 38z" />
    <glyph glyph-name="R" unicode="R" horiz-adv-x="1394" 
d="M1305 0h-277q-26 51 -39 119q-12 68 -12 209q0 144 -63 205t-193 61h-348v-594h-226v1434h687q211 0 335.5 -110.5t124.5 -279.5q0 -135 -75 -232.5t-211 -145.5q107 -42 163 -124t62 -216q5 -115 16 -187q12 -59 56 -106v-33zM373 809h440q117 0 181.5 53.5t64.5 151.5
t-64.5 151.5t-181.5 53.5h-440v-410z" />
    <glyph glyph-name="S" unicode="S" horiz-adv-x="1314" 
d="M643 1239q-115 0 -185.5 -49.5t-70.5 -124.5q0 -63 47.5 -110t124.5 -75t195 -51q251 -48 372 -148.5t121 -270.5q0 -186 -156 -308t-403 -122q-205 0 -385 98q-178 102 -254 342l215 133q38 -173 149 -265.5t277 -92.5q146 0 234 56.5t88 147.5q0 88 -78.5 142
t-259.5 84q-255 44 -383.5 149t-128.5 289q0 162 141.5 276.5t360.5 114.5q182 0 322.5 -92t199.5 -256l-215 -123q-30 124 -113 190t-215 66z" />
    <glyph glyph-name="T" unicode="T" horiz-adv-x="1384" 
d="M1327 1434v-215h-522v-1219h-225v1219h-523v215h1270z" />
    <glyph glyph-name="U" unicode="U" horiz-adv-x="1458" 
d="M131 1434h225v-848q0 -183 102 -287t271 -104t271 104t102 287v848h225v-861q0 -266 -163 -429.5t-435 -163.5t-435 163.5t-163 429.5v861z" />
    <glyph glyph-name="V" unicode="V" horiz-adv-x="1531" 
d="M766 182l491 1252h254l-589 -1434h-312l-590 1434h254z" />
    <glyph glyph-name="W" unicode="W" horiz-adv-x="2056" 
d="M362 0l-337 1434h235l287 -1276l287 1276h389l286 -1276l287 1276h236l-338 -1434h-369l-297 1284l-297 -1284h-369z" />
    <glyph glyph-name="X" unicode="X" horiz-adv-x="1417" 
d="M33 0l542 778l-460 656h276l318 -482l317 482h277l-461 -656l542 -778h-276l-399 594l-400 -594h-276z" />
    <glyph glyph-name="Y" unicode="Y" horiz-adv-x="1421" 
d="M301 1434l410 -652l430 652h256l-574 -850v-584h-225v584l-573 850h276z" />
    <glyph glyph-name="Z" unicode="Z" horiz-adv-x="1447" 
d="M102 215l932 1004h-921v215h1218v-215l-932 -1004h942v-215h-1239v215z" />
    <glyph glyph-name="bracketleft" unicode="[" horiz-adv-x="636" 
d="M147 1690h400v-174h-205v-1672h205v-174h-400v2020z" />
    <glyph glyph-name="backslash" unicode="\" horiz-adv-x="1064" 
d="M967 -205l-174 -63l-695 1906l174 64z" />
    <glyph glyph-name="bracketright" unicode="]" horiz-adv-x="636" 
d="M90 -330v174h205v1672h-205v174h399v-2020h-399z" />
    <glyph glyph-name="asciicircum" unicode="^" horiz-adv-x="1138" 
d="M651 1454l385 -430v-33h-235l-215 289h-33l-213 -289h-238v33l385 430h164z" />
    <glyph glyph-name="underscore" unicode="_" horiz-adv-x="1179" 
d="M78 -51h1024v-195h-1024v195z" />
    <glyph glyph-name="grave" unicode="`" horiz-adv-x="698" 
d="M371 1137l-248 239v33h276l176 -272h-204z" />
    <glyph glyph-name="a" unicode="a" horiz-adv-x="1073" 
d="M92 276q0 153 101.5 232.5t269.5 79.5q89 0 172 -21l102 -24v71q0 95 -63 149t-162 54q-95 0 -156.5 -51.5t-79.5 -140.5l-194 51q33 146 144 230.5t286 84.5q207 0 318.5 -101t111.5 -286v-604h-205v164q-33 -85 -116.5 -134.5t-208.5 -49.5q-127 0 -223.5 81.5
t-96.5 214.5zM737 369v10l-78 20q-105 27 -161 27q-84 0 -132.5 -32.5t-48.5 -96.5q0 -60 46 -96.5t135 -36.5q107 0 173 55t66 150z" />
    <glyph glyph-name="b" unicode="b" horiz-adv-x="1187" 
d="M131 1434h215v-635q49 88 138.5 140t189.5 52q196 0 318 -143.5t122 -368.5q0 -223 -127 -361t-334 -138q-99 0 -182 41.5t-133 121.5v-143h-207v1434zM618 170q119 0 200 86t81 223t-82 227.5t-199 90.5q-111 0 -195.5 -90.5t-84.5 -227.5t83 -223t197 -86z" />
    <glyph glyph-name="c" unicode="c" horiz-adv-x="1134" 
d="M586 164q130 0 204.5 74.5t92.5 201.5l194 -71q-36 -184 -165.5 -286.5t-315.5 -102.5q-236 0 -379 140.5t-143 371.5q0 143 67 258t179 178t245 63q181 0 305.5 -95.5t155.5 -260.5l-195 -62q-17 109 -88.5 171.5t-177.5 62.5q-73 0 -137 -35t-106.5 -108.5
t-42.5 -171.5q0 -144 92.5 -236t214.5 -92z" />
    <glyph glyph-name="d" unicode="d" horiz-adv-x="1187" 
d="M74 479q0 225 124 368.5t326 143.5q110 0 193 -51t125 -141v635h215v-1434h-207v164q-44 -87 -130.5 -135.5t-195.5 -48.5q-202 0 -326 140t-124 359zM850 479q0 138 -83.5 228t-197.5 90q-117 0 -198.5 -90t-81.5 -228q0 -139 80 -225q84 -84 200 -84q115 0 198 85.5
t83 223.5z" />
    <glyph glyph-name="e" unicode="e" horiz-adv-x="1087" 
d="M842 369l184 -72q-52 -154 -165 -235.5t-283 -81.5q-226 0 -365 139.5t-139 372.5q0 213 131.5 356t341.5 143q193 0 315.5 -116.5t122.5 -311.5q0 -50 -10 -112h-686q0 -141 86 -215q90 -72 205 -72q104 0 171.5 52.5t90.5 152.5zM289 594h481l2 18q0 89 -63.5 142
t-163.5 53q-101 0 -172 -58t-84 -155z" />
    <glyph glyph-name="f" unicode="f" horiz-adv-x="811" 
d="M231 0v786h-213v185h213v155q0 147 95 237.5t254 90.5q166 0 253 -84.5t87 -218.5q0 -37 -2 -47h-205q4 28 4 41q0 57 -36 91t-101 34q-62 0 -98 -39.5t-36 -110.5v-149h267v-185h-267v-786h-215z" />
    <glyph glyph-name="g" unicode="g" horiz-adv-x="1187" 
d="M125 -123l194 82q23 -97 93 -149t174 -52q130 0 193 81.5t63 232.5v102q-39 -81 -125 -127.5t-203 -46.5q-188 0 -314 133.5t-126 347.5q0 224 133 367t328 143q205 0 307 -151v131h215v-889q0 -231 -123 -369q-124 -139 -348 -139q-360 0 -461 303zM850 494
q0 136 -80 224.5t-201 88.5q-123 0 -201.5 -89.5t-78.5 -236.5q0 -135 78.5 -216t201.5 -81q121 0 201 86q80 89 80 224z" />
    <glyph glyph-name="h" unicode="h" horiz-adv-x="1159" 
d="M346 0h-215v1434h215v-662q38 103 126.5 161t209.5 58q158 0 252 -97.5t94 -254.5v-639h-215v578q0 115 -57 175t-166 60q-106 0 -175 -81.5t-69 -215.5v-516z" />
    <glyph glyph-name="i" unicode="i" horiz-adv-x="477" 
d="M131 971h215v-971h-215v971zM121 1137v235h235v-235h-235z" />
    <glyph glyph-name="j" unicode="j" horiz-adv-x="477" 
d="M131 -406v1377h215v-1377h-215zM121 1137v235h235v-235h-235z" />
    <glyph glyph-name="k" unicode="k" horiz-adv-x="1056" 
d="M614 573l398 -573h-256l-289 418l-121 -127v-291h-215v1434h215v-871l369 408h276z" />
    <glyph glyph-name="l" unicode="l" horiz-adv-x="477" 
d="M131 0v1434h215v-1434h-215z" />
    <glyph glyph-name="m" unicode="m" horiz-adv-x="1562" 
d="M131 971h215v-137q69 157 256 157q93 0 160 -51.5t96 -151.5q36 100 109.5 151.5t167.5 51.5q138 0 217.5 -87.5t79.5 -248.5v-655h-215v608q0 89 -45.5 140t-118.5 51t-118.5 -51t-45.5 -140v-608h-215v608q0 89 -45.5 140t-118.5 51q-75 0 -119.5 -55t-44.5 -156v-588
h-215v971z" />
    <glyph glyph-name="n" unicode="n" horiz-adv-x="1122" 
d="M346 0h-215v971h215v-142q97 162 305 162q154 0 247 -96t93 -260v-635h-215v561q0 116 -54 181t-147 65q-100 0 -164.5 -72t-64.5 -194v-541z" />
    <glyph glyph-name="o" unicode="o" horiz-adv-x="1146" 
d="M74 485q0 217 140.5 361.5t358.5 144.5t359 -144.5t141 -361.5t-141 -361t-359 -144t-358.5 144t-140.5 361zM858 485q0 136 -81 224t-204 88t-203.5 -88t-80.5 -224t80.5 -223.5t203.5 -87.5t204 87.5t81 223.5z" />
    <glyph glyph-name="p" unicode="p" horiz-adv-x="1187" 
d="M131 971h207v-172q49 86 142.5 139t193.5 53q196 0 318 -143.5t122 -368.5q0 -223 -127 -361t-334 -138q-100 0 -182 39.5t-125 115.5v-541h-215v1377zM618 170q119 0 200 86t81 223t-82 227.5t-199 90.5q-111 0 -195.5 -90.5t-84.5 -227.5t83 -223t197 -86z" />
    <glyph glyph-name="q" unicode="q" horiz-adv-x="1187" 
d="M842 -406v570q-47 -88 -130 -136t-188 -48q-202 0 -326 140t-124 359q0 225 124 368.5t326 143.5q111 0 197.5 -51.5t128.5 -140.5v172h207v-1377h-215zM850 479q0 138 -83.5 228t-197.5 90q-117 0 -198.5 -90t-81.5 -228q0 -139 80 -225q84 -84 200 -84q115 0 198 85.5
t83 223.5z" />
    <glyph glyph-name="r" unicode="r" horiz-adv-x="931" 
d="M131 971h215v-142q29 78 89.5 120t146.5 42q120 0 200 -80q80 -77 80 -194q0 -68 -14 -123h-213q8 36 8 82q0 57 -40.5 94t-102.5 37q-70 0 -112 -44t-42 -118v-645h-215v971z" />
    <glyph glyph-name="s" unicode="s" horiz-adv-x="968" 
d="M59 246l174 92q38 -90 104 -132t167 -42q85 0 133.5 31t48.5 81q0 67 -50 100t-190 56q-333 54 -333 285q0 119 105.5 196.5t256.5 77.5q136 0 221.5 -53.5t134.5 -157.5l-163 -90q-44 129 -191 129q-72 0 -121 -31t-49 -75q0 -55 52 -80.5t194 -46.5q177 -26 257.5 -99
t80.5 -200q0 -134 -113.5 -220.5t-281.5 -86.5q-164 0 -275 70t-162 196z" />
    <glyph glyph-name="t" unicode="t" horiz-adv-x="964" 
d="M236 307v479h-195v185h195v309h215v-309h368v-185h-368v-489q0 -64 34.5 -98.5t87.5 -34.5q62 0 95 40t39 124l204 -41q-13 -146 -100 -226.5t-227 -80.5q-169 0 -258.5 86t-89.5 241z" />
    <glyph glyph-name="u" unicode="u" horiz-adv-x="1132" 
d="M786 971h215v-971h-215v154q-104 -174 -301 -174q-164 0 -259 94t-95 274v623h215v-572q0 -114 51 -174.5t144 -60.5q110 0 177.5 81t67.5 216v510z" />
    <glyph glyph-name="v" unicode="v" horiz-adv-x="1093" 
d="M262 971l285 -756l284 756h226l-387 -971h-246l-387 971h225z" />
    <glyph glyph-name="w" unicode="w" horiz-adv-x="1540" 
d="M248 971l205 -756l194 756h246l194 -756l205 756h215l-286 -971h-256l-195 682l-195 -682h-256l-286 971h215z" />
    <glyph glyph-name="x" unicode="x" horiz-adv-x="991" 
d="M926 971l-312 -455l353 -516h-246l-225 348l-226 -348h-245l354 516l-313 455h245l185 -285l184 285h246z" />
    <glyph glyph-name="y" unicode="y" horiz-adv-x="1042" 
d="M793 971h225l-656 -1377h-225l260 549l-383 828h232l264 -594z" />
    <glyph glyph-name="z" unicode="z" horiz-adv-x="1021" 
d="M932 0h-850v184l573 592h-563v195h830v-185l-574 -591h584v-195z" />
    <glyph glyph-name="braceleft" unicode="{" horiz-adv-x="667" 
d="M178 -33v525q0 102 -96 102h-16v172h16q96 0 96 102v525q0 156 69 226.5t228 70.5h103v-174h-103q-48 0 -75 -26.5t-27 -76.5v-528q0 -94 -41.5 -140.5t-132.5 -64.5q91 -18 132.5 -64.5t41.5 -140.5v-528q0 -50 27 -76.5t75 -26.5h103v-174h-103q-159 0 -228 70.5
t-69 226.5z" />
    <glyph glyph-name="bar" unicode="|" horiz-adv-x="479" 
d="M147 1700h185v-2007h-185v2007z" />
    <glyph glyph-name="braceright" unicode="}" horiz-adv-x="667" 
d="M90 -330v174h103q48 0 75 26.5t27 76.5v528q0 94 41.5 140.5t132.5 64.5q-91 18 -132.5 64.5t-41.5 140.5v528q0 50 -27 76.5t-75 26.5h-103v174h103q158 0 227 -70t69 -227v-525q0 -102 97 -102h16v-172h-16q-97 0 -97 -102v-525q0 -157 -69 -227t-227 -70h-103z" />
    <glyph glyph-name="asciitilde" unicode="~" horiz-adv-x="1095" 
d="M145 463l-2 31q0 116 76 185t178 69q67 0 108.5 -19.5t84.5 -62.5q24 -22 34.5 -30t27 -15t36.5 -7q37 0 59.5 23.5t22.5 60.5q0 19 -8 43l188 -24l2 -31q0 -110 -73 -182t-183 -72q-67 0 -106 18.5t-82 61.5q-31 31 -51 42t-51 11q-36 0 -59 -24t-23 -64q0 -20 6 -41z
" />
    <glyph glyph-name="uni00A0" unicode="&#xa0;" horiz-adv-x="491" 
 />
    <glyph glyph-name="exclamdown" unicode="&#xa1;" horiz-adv-x="499" 
d="M127 1028h246v-246h-246v246zM147 659h205v-1065h-205v1065z" />
    <glyph glyph-name="cent" unicode="&#xa2;" horiz-adv-x="1134" 
d="M655 -18v-183h-194v195q-180 37 -283.5 170t-103.5 328q0 186 109 320.5t278 168.5v190h194v-186q148 -25 247.5 -117t123.5 -233l-195 -62q-12 82 -58 140.5t-118 81.5v-625q100 20 157 91t71 179l194 -71q-35 -168 -146.5 -268t-275.5 -119zM461 193v593
q-83 -32 -132.5 -108.5t-49.5 -185.5q0 -103 50 -183t132 -116z" />
    <glyph glyph-name="sterling" unicode="&#xa3;" horiz-adv-x="1304" 
d="M1055 307l194 -102q-95 -225 -348 -225q-99 0 -170.5 31.5t-136.5 92.5q-81 -124 -246 -124q-127 0 -196.5 68t-69.5 177q0 101 72 168.5t184 67.5q87 0 149 -33q-9 65 -51 135h-293v195h144q-92 132 -92 266q0 130 66 229.5t174.5 150t240.5 50.5q201 0 330.5 -107
t160.5 -292l-225 -72q-18 126 -85 196t-181 70t-185 -63t-71 -182q0 -66 22.5 -120t75.5 -126h363v-195h-244q29 -89 29 -164q0 -45 -7 -106q61 -58 110 -83.5t112 -25.5q67 0 109 29t65 94zM473 227q-61 49 -125 49q-43 0 -67.5 -19.5t-24.5 -51.5q0 -33 24 -52.5t68 -19.5
q91 0 125 94z" />
    <glyph glyph-name="currency" unicode="&#xa4;" horiz-adv-x="1236" 
d="M1006 469l149 -150l-139 -139l-150 150q-116 -72 -248 -72q-131 0 -247 72l-150 -150l-139 139l149 150q-71 115 -71 248q0 134 71 246l-149 151l139 139l150 -149q116 72 247 72q132 0 248 -72l150 149l139 -139l-149 -149q71 -115 71 -248t-71 -248zM618 463
q110 0 181 74q73 73 73 180q0 109 -72.5 181.5t-181.5 72.5q-106 0 -180 -74q-73 -70 -73 -180q0 -107 73 -180q74 -74 180 -74z" />
    <glyph glyph-name="yen" unicode="&#xa5;" horiz-adv-x="1421" 
d="M1397 1434l-455 -666h260v-195h-385v-81h385v-195h-385v-297h-213v297h-385v195h385v81h-385v195h260l-454 666h256l430 -656l430 656h256z" />
    <glyph glyph-name="brokenbar" unicode="&#xa6;" horiz-adv-x="479" 
d="M147 809v891h185v-891h-185zM332 625v-932h-185v932h185z" />
    <glyph glyph-name="section" unicode="&#xa7;" horiz-adv-x="1097" 
d="M985 135q0 -156 -123.5 -252t-314.5 -96q-182 0 -294.5 72.5t-148.5 208.5l179 88q49 -185 264 -185q107 0 174 42.5t67 115.5q0 82 -85.5 129t-256.5 68q-397 53 -397 319q0 146 146 236q-97 88 -97 225q0 157 123 252.5t316 95.5q182 0 294 -72t148 -208l-180 -89
q-50 185 -264 185q-107 0 -173.5 -42t-66.5 -116q0 -83 85 -129.5t257 -67.5q393 -53 393 -319q0 -148 -143 -236q98 -85 98 -225zM559 485q108 -17 184 -43q86 56 86 136q0 75 -68.5 115t-236.5 63q-111 14 -186 43q-88 -52 -88 -135q0 -75 69.5 -115.5t239.5 -63.5z" />
    <glyph glyph-name="dieresis" unicode="&#xa8;" horiz-adv-x="757" 
d="M82 1153v229h225v-229h-225zM451 1153v229h225v-229h-225z" />
    <glyph glyph-name="copyright" unicode="&#xa9;" horiz-adv-x="1097" 
d="M90 995q0 190 133.5 324.5t325.5 134.5t325.5 -134.5t133.5 -324.5q0 -124 -60.5 -229.5t-166 -167t-232.5 -61.5t-232.5 61.5t-166 167t-60.5 229.5zM905 995q0 149 -102.5 254t-253.5 105t-253.5 -105t-102.5 -254t102.5 -253.5t253.5 -104.5t253.5 104.5t102.5 253.5z
M287 997q0 117 75 189q76 76 185 76q98 0 161 -48t83 -139l-101 -31q-7 55 -46.5 88t-96.5 33q-65 0 -108.5 -44.5t-43.5 -123.5q0 -76 45 -123t113 -47q69 0 110 39t52 105l96 -35q-26 -99 -93.5 -153t-164.5 -54q-119 0 -192.5 73.5t-73.5 194.5z" />
    <glyph glyph-name="ordfeminine" unicode="&#xaa;" horiz-adv-x="964" 
d="M80 807q0 135 90.5 206.5t241.5 71.5q80 0 166 -22l81 -21v72q0 85 -55.5 133.5t-144.5 48.5q-85 0 -140 -45.5t-73 -124.5l-172 48q31 130 131.5 205t253.5 75q185 0 286 -92t101 -260v-547h-182v141q-36 -75 -111.5 -117t-183.5 -42q-121 0 -205 73.5t-84 196.5z
M659 885v12l-67 21q-82 24 -150 24q-75 0 -118 -31t-43 -90q0 -57 41.5 -90t119.5 -33q98 0 157.5 50t59.5 137z" />
    <glyph glyph-name="guillemotleft" unicode="&#xab;" horiz-adv-x="1056" 
d="M528 174l-430 410v61l430 410h33v-226l-242 -198v-33l242 -199v-225h-33zM918 174l-431 410v61l431 410h32v-226l-241 -198v-33l241 -199v-225h-32z" />
    <glyph glyph-name="logicalnot" unicode="&#xac;" horiz-adv-x="1167" 
d="M860 451v235h-737v184h921v-419h-184z" />
    <glyph glyph-name="uni00AD" unicode="&#xad;" horiz-adv-x="749" 
d="M98 614h553v-194h-553v194z" />
    <glyph glyph-name="registered" unicode="&#xae;" horiz-adv-x="1097" 
d="M90 995q0 190 133.5 324.5t325.5 134.5t325.5 -134.5t133.5 -324.5q0 -124 -60.5 -229.5t-166 -167t-232.5 -61.5t-232.5 61.5t-166 167t-60.5 229.5zM905 995q0 149 -102.5 254t-253.5 105t-253.5 -105t-102.5 -254t102.5 -253.5t253.5 -104.5t253.5 104.5t102.5 253.5z
M358 739v514h236q77 0 121.5 -38.5t44.5 -100.5q0 -50 -25.5 -86t-72.5 -49q81 -34 81 -123q0 -45 5 -66t22 -38v-13h-111q-20 39 -20 117q0 53 -22.5 74.5t-69.5 21.5h-88v-213h-101zM459 1040h123q75 0 75 64q0 61 -75 61h-123v-125z" />
    <glyph glyph-name="overscore" unicode="&#xaf;" horiz-adv-x="778" 
d="M123 1339h532v-159h-532v159z" />
    <glyph glyph-name="degree" unicode="&#xb0;" horiz-adv-x="831" 
d="M82 1120q0 136 99 235t235 99t235 -99t99 -235t-99 -235t-235 -99t-235 99t-99 235zM586 1120q0 72 -49 121t-121 49t-121 -49t-49 -121t49 -121t121 -49t121 49t49 121z" />
    <glyph glyph-name="plusminus" unicode="&#xb1;" horiz-adv-x="1167" 
d="M492 256v317h-369v185h369v317h184v-317h368v-185h-368v-317h-184zM123 0v184h921v-184h-921z" />
    <glyph glyph-name="uni00B2" unicode="&#xb2;" horiz-adv-x="606" 
d="M49 1223q0 97 69 158t179 61q121 0 186.5 -58t65.5 -159q0 -64 -22.5 -112t-58.5 -79t-99 -65q-39 -24 -55.5 -35.5t-33.5 -28t-26 -35.5h295v-133h-496q0 111 45 178t144 125q96 58 128.5 92.5t32.5 86.5q0 43 -28.5 67.5t-81.5 24.5q-46 0 -75.5 -25.5t-29.5 -62.5
t29 -74l-111 -74q-57 57 -57 148z" />
    <glyph glyph-name="uni00B3" unicode="&#xb3;" horiz-adv-x="636" 
d="M53 936l133 61q8 -61 42 -95t89 -34q47 0 79 29.5t32 73.5q0 47 -28.5 76.5t-71.5 29.5q-49 0 -78 -26l-82 100l178 149h-256v134h451v-113l-152 -127q74 -2 130 -61.5t56 -159.5q0 -108 -72.5 -176t-183.5 -68q-110 0 -178.5 55.5t-87.5 151.5z" />
    <glyph glyph-name="acute" unicode="&#xb4;" horiz-adv-x="698" 
d="M123 1137l176 272h276v-33l-247 -239h-205z" />
    <glyph glyph-name="uni00B5" unicode="&#xb5;" horiz-adv-x="1132" 
d="M131 -406v1377h215v-572q0 -114 54 -174.5t163 -60.5q99 0 161 79.5t62 217.5v510h215v-971h-215v154q-76 -174 -254 -174q-61 0 -110 19t-76 52v-457h-215z" />
    <glyph glyph-name="paragraph" unicode="&#xb6;" horiz-adv-x="1124" 
d="M473 0v725h-43q-167 0 -268 98t-101 256t101 256q102 99 268 99h633v-144h-92v-1290h-164v1290h-170v-1290h-164zM426 868h47v422h-47q-81 0 -141 -56t-60 -155t60 -155t141 -56z" />
    <glyph glyph-name="middot" unicode="&#xb7;" horiz-adv-x="499" 
d="M127 840h246v-246h-246v246z" />
    <glyph glyph-name="cedilla" unicode="&#xb8;" horiz-adv-x="573" 
d="M211 -104q40 43 98 43q70 0 115 -43t45 -115q0 -77 -47.5 -121.5t-126.5 -44.5q-74 0 -123 34.5t-61 100.5l108 27q5 -27 24 -43.5t48 -16.5q32 0 50.5 17.5t18.5 46.5q0 30 -18.5 47.5t-50.5 17.5q-48 0 -70 -36l-106 20q18 65 41 203h114q-30 -87 -59 -137z" />
    <glyph glyph-name="uni00B9" unicode="&#xb9;" horiz-adv-x="440" 
d="M219 737v502q-19 -49 -67.5 -79.5t-102.5 -35.5l-20 158q86 6 137 45t63 107h133v-697h-143z" />
    <glyph glyph-name="ordmasculine" unicode="&#xba;" horiz-adv-x="1024" 
d="M512 1454q202 0 324 -127.5t122 -331.5t-122 -331t-324 -127t-324 127t-122 331t122 331.5t324 127.5zM512 713q110 0 180 79t70 203q0 125 -70 204t-180 79t-180 -79t-70 -204q0 -124 70 -203t180 -79z" />
    <glyph glyph-name="guillemotright" unicode="&#xbb;" horiz-adv-x="1056" 
d="M106 174v225l242 199v33l-242 198v226h33l430 -410v-61l-430 -410h-33zM496 174v225l241 199v33l-241 198v226h32l430 -410v-61l-430 -410h-32z" />
    <glyph glyph-name="onequarter" unicode="&#xbc;" horiz-adv-x="1355" 
d="M219 737v502q-19 -49 -67.5 -79.5t-102.5 -35.5l-20 158q86 6 137 45t63 107h133v-697h-143zM1038 1227l105 -103l-1008 -960l-104 102zM1112 0v147h-330v148q74 74 106 155t32 201v45h143v-45q0 -121 -29 -210t-94 -160h172v200h143v-200h84v-134h-84v-147h-143z" />
    <glyph glyph-name="onehalf" unicode="&#xbd;" horiz-adv-x="1339" 
d="M219 737v502q-19 -49 -67.5 -79.5t-102.5 -35.5l-20 158q86 6 137 45t63 107h133v-697h-143zM1038 1227l105 -103l-1008 -960l-104 102zM782 485q0 97 69 158.5t179 61.5q121 0 186.5 -58.5t65.5 -159.5q0 -64 -22.5 -112t-58.5 -79t-99 -65q-41 -25 -56 -35.5t-32.5 -27
t-26.5 -35.5h295v-133h-496q0 111 45 178t144 125q97 58 129.5 92t32.5 86q0 43 -29 67.5t-82 24.5q-46 0 -75 -25t-29 -63q0 -37 28 -73l-110 -74q-58 58 -58 147z" />
    <glyph glyph-name="threequarters" unicode="&#xbe;" horiz-adv-x="1552" 
d="M53 936l133 61q8 -61 42 -95t89 -34q47 0 79 29.5t32 73.5q0 47 -28.5 76.5t-71.5 29.5q-49 0 -78 -26l-82 100l178 149h-256v134h451v-113l-152 -127q74 -2 130 -61.5t56 -159.5q0 -108 -72.5 -176t-183.5 -68q-110 0 -178.5 55.5t-87.5 151.5zM1235 1227l104 -103
l-1007 -960l-105 102zM1309 0v147h-330v148q74 74 105.5 155t31.5 201v45h144v-45q0 -121 -29 -210t-94 -160h172v200h143v-200h84v-134h-84v-147h-143z" />
    <glyph glyph-name="questiondown" unicode="&#xbf;" horiz-adv-x="991" 
d="M602 1028v-246h-246v246h246zM827 362q0 -264 -344 -323q-110 -20 -159.5 -58t-49.5 -100q0 -58 55 -95.5t150 -37.5q101 0 174.5 61t102.5 175l174 -93q-53 -156 -173 -236.5t-288 -80.5q-187 0 -293 81t-106 216q0 130 83 209t275 123q101 24 148 60.5t47 96.5
q0 51 -39 84t-99 33q-145 0 -198 -170l-174 96q51 122 145.5 184t224.5 62q156 0 250 -80.5t94 -206.5z" />
    <glyph glyph-name="Agrave" unicode="&#xc0;" horiz-adv-x="1540" 
d="M25 0l589 1434h312l590 -1434h-254l-138 348h-708l-137 -348h-254zM496 553h548l-274 694zM668 1599l-248 240v33h276l176 -273h-204z" />
    <glyph glyph-name="Aacute" unicode="&#xc1;" horiz-adv-x="1540" 
d="M25 0l589 1434h312l590 -1434h-254l-138 348h-708l-137 -348h-254zM496 553h548l-274 694zM668 1599l176 273h276v-33l-248 -240h-204z" />
    <glyph glyph-name="Acircumflex" unicode="&#xc2;" horiz-adv-x="1540" 
d="M25 0l589 1434h312l590 -1434h-254l-138 348h-708l-137 -348h-254zM496 553h548l-274 694zM444 1599v33l256 221h140l256 -221v-33h-224l-102 132l-102 -132h-224z" />
    <glyph glyph-name="Atilde" unicode="&#xc3;" horiz-adv-x="1540" 
d="M25 0l589 1434h312l590 -1434h-254l-138 348h-708l-137 -348h-254zM496 553h548l-274 694zM735 1663q-26 22 -41 30.5t-37 8.5q-27 0 -45 -18.5t-18 -49.5q0 -2 4 -30l-149 20q-5 25 -5 31q0 85 56.5 140.5t142.5 55.5q56 0 91 -15.5t71 -49.5q26 -22 41 -30.5t37 -8.5
q27 0 45 18.5t18 49.5q0 2 -4 30l150 -20q4 -20 4 -31q0 -85 -56.5 -141t-142.5 -56q-56 0 -91 16t-71 50z" />
    <glyph glyph-name="Adieresis" unicode="&#xc4;" horiz-adv-x="1540" 
d="M25 0l589 1434h312l590 -1434h-254l-138 348h-708l-137 -348h-254zM496 553h548l-274 694zM473 1616v229h225v-229h-225zM842 1616v229h225v-229h-225z" />
    <glyph glyph-name="Aring" unicode="&#xc5;" horiz-adv-x="1540" 
d="M25 0l589 1434h312l590 -1434h-254l-138 348h-708l-137 -348h-254zM496 553h548l-274 694zM580 1747q0 79 55 134.5t135 55.5t135.5 -55.5t55.5 -134.5t-55.5 -135t-135.5 -56q-79 0 -134.5 55.5t-55.5 135.5zM844 1747q0 29 -22.5 51.5t-51.5 22.5t-51.5 -22.5
t-22.5 -51.5t22.5 -51.5t51.5 -22.5t51.5 22.5t22.5 51.5z" />
    <glyph glyph-name="AE" unicode="&#xc6;" horiz-adv-x="1988" 
d="M1147 215h739v-215h-964v348h-459l-184 -348h-254l761 1434h1080v-215h-719v-369h657v-215h-657v-420zM922 553v666l-353 -666h353z" />
    <glyph glyph-name="Ccedilla" unicode="&#xc7;" horiz-adv-x="1605" 
d="M322 717q0 -247 135 -390t356 -143q224 0 356 129t166 322l205 -82q-57 -257 -248.5 -415t-478.5 -158q-211 -3 -379 94.5t-259 266.5t-89 376q-3 152 53.5 289.5t153.5 236.5t233.5 156.5t286.5 54.5q133 0 245 -38.5t190.5 -105.5t131.5 -152.5t78 -184.5l-205 -92
q-33 167 -147.5 267.5t-292.5 100.5q-213 0 -352 -147t-139 -385zM760 -104q40 43 98 43q70 0 115 -43t45 -115q0 -77 -47.5 -121.5t-126.5 -44.5q-74 0 -123.5 34.5t-61.5 100.5l109 27q5 -27 24 -43.5t48 -16.5q32 0 50.5 17.5t18.5 46.5q0 30 -18.5 47.5t-50.5 17.5
q-48 0 -70 -36l-106 20q18 65 41 203h114q-30 -87 -59 -137z" />
    <glyph glyph-name="Egrave" unicode="&#xc8;" horiz-adv-x="1314" 
d="M147 1434h1045v-215h-819v-369h757v-215h-757v-420h839v-215h-1065v1434zM567 1599l-248 240v33h277l176 -273h-205z" />
    <glyph glyph-name="Eacute" unicode="&#xc9;" horiz-adv-x="1314" 
d="M147 1434h1045v-215h-819v-369h757v-215h-757v-420h839v-215h-1065v1434zM567 1599l176 273h277v-33l-248 -240h-205z" />
    <glyph glyph-name="Ecircumflex" unicode="&#xca;" horiz-adv-x="1314" 
d="M147 1434h1045v-215h-819v-369h757v-215h-757v-420h839v-215h-1065v1434zM344 1599v33l256 221h139l256 -221v-33h-223l-102 132l-103 -132h-223z" />
    <glyph glyph-name="Edieresis" unicode="&#xcb;" horiz-adv-x="1314" 
d="M147 1434h1045v-215h-819v-369h757v-215h-757v-420h839v-215h-1065v1434zM373 1616v229h225v-229h-225zM741 1616v229h226v-229h-226z" />
    <glyph glyph-name="Igrave" unicode="&#xcc;" horiz-adv-x="520" 
d="M147 0v1434h226v-1434h-226zM158 1599l-248 240v33h276l176 -273h-204z" />
    <glyph glyph-name="Iacute" unicode="&#xcd;" horiz-adv-x="520" 
d="M147 0v1434h226v-1434h-226zM158 1599l176 273h276v-33l-248 -240h-204z" />
    <glyph glyph-name="Icircumflex" unicode="&#xce;" horiz-adv-x="520" 
d="M147 0v1434h226v-1434h-226zM-66 1599v33l256 221h140l256 -221v-33h-224l-102 132l-102 -132h-224z" />
    <glyph glyph-name="Idieresis" unicode="&#xcf;" horiz-adv-x="520" 
d="M147 0v1434h226v-1434h-226zM-37 1616v229h225v-229h-225zM332 1616v229h225v-229h-225z" />
    <glyph glyph-name="Eth" unicode="&#xd0;" horiz-adv-x="1492" 
d="M147 0v1434h543q226 0 390 -94t245.5 -256.5t81.5 -376.5q0 -152 -48.5 -281.5t-138.5 -224t-226.5 -148t-303.5 -53.5h-543zM373 1229v-1024h317q116 0 210 40t155 109t94 159.5t33 193.5q0 233 -128.5 377.5t-363.5 144.5h-317zM-16 809h807v-184h-807v184z" />
    <glyph glyph-name="Ntilde" unicode="&#xd1;" horiz-adv-x="1579" 
d="M373 1270v-1270h-226v1434h392l667 -1272v1272h226v-1434h-392zM756 1663q-26 22 -41 30.5t-37 8.5q-27 0 -45.5 -18.5t-18.5 -49.5q0 -2 4 -30l-149 20q-4 20 -4 31q0 85 56.5 140.5t142.5 55.5q56 0 90.5 -15.5t70.5 -49.5q26 -22 41 -30.5t37 -8.5q27 0 45.5 18.5
t18.5 49.5q0 2 -4 30l149 -20q4 -20 4 -31q0 -85 -56 -141t-142 -56q-56 0 -91 16t-71 50z" />
    <glyph glyph-name="Ograve" unicode="&#xd2;" horiz-adv-x="1667" 
d="M834 1454q151 3 290.5 -56t240.5 -159t160 -237t56 -285q3 -148 -56 -285.5t-160 -237.5t-240.5 -158.5t-290.5 -55.5q-151 -3 -290.5 55.5t-240.5 158.5t-160.5 237.5t-56.5 285.5q-3 147 56.5 284.5t160.5 237.5t240.5 159t290.5 56zM834 195q141 0 257.5 65.5
t185.5 185.5t69 271q0 229 -146.5 375.5t-365.5 146.5t-365.5 -148t-146.5 -376q0 -229 148 -374.5t364 -145.5zM731 1599l-248 240v33h277l176 -273h-205z" />
    <glyph glyph-name="Oacute" unicode="&#xd3;" horiz-adv-x="1667" 
d="M834 1454q151 3 290.5 -56t240.5 -159t160 -237t56 -285q3 -148 -56 -285.5t-160 -237.5t-240.5 -158.5t-290.5 -55.5q-151 -3 -290.5 55.5t-240.5 158.5t-160.5 237.5t-56.5 285.5q-3 147 56.5 284.5t160.5 237.5t240.5 159t290.5 56zM834 195q141 0 257.5 65.5
t185.5 185.5t69 271q0 229 -146.5 375.5t-365.5 146.5t-365.5 -148t-146.5 -376q0 -229 148 -374.5t364 -145.5zM731 1599l176 273h277v-33l-248 -240h-205z" />
    <glyph glyph-name="Ocircumflex" unicode="&#xd4;" horiz-adv-x="1667" 
d="M834 1454q151 3 290.5 -56t240.5 -159t160 -237t56 -285q3 -148 -56 -285.5t-160 -237.5t-240.5 -158.5t-290.5 -55.5q-151 -3 -290.5 55.5t-240.5 158.5t-160.5 237.5t-56.5 285.5q-3 147 56.5 284.5t160.5 237.5t240.5 159t290.5 56zM834 195q141 0 257.5 65.5
t185.5 185.5t69 271q0 229 -146.5 375.5t-365.5 146.5t-365.5 -148t-146.5 -376q0 -229 148 -374.5t364 -145.5zM508 1599v33l256 221h139l256 -221v-33h-223l-102 132l-103 -132h-223z" />
    <glyph glyph-name="Otilde" unicode="&#xd5;" horiz-adv-x="1667" 
d="M834 1454q151 3 290.5 -56t240.5 -159t160 -237t56 -285q3 -148 -56 -285.5t-160 -237.5t-240.5 -158.5t-290.5 -55.5q-151 -3 -290.5 55.5t-240.5 158.5t-160.5 237.5t-56.5 285.5q-3 147 56.5 284.5t160.5 237.5t240.5 159t290.5 56zM834 195q141 0 257.5 65.5
t185.5 185.5t69 271q0 229 -146.5 375.5t-365.5 146.5t-365.5 -148t-146.5 -376q0 -229 148 -374.5t364 -145.5zM799 1663q-26 22 -41 30.5t-37 8.5q-27 0 -45.5 -18.5t-18.5 -49.5q0 -3 2 -13.5t3 -16.5l-150 20q-4 20 -4 31q0 85 56.5 140.5t142.5 55.5q56 0 90.5 -15.5
t70.5 -49.5q26 -22 41 -30.5t37 -8.5q27 0 45.5 18.5t18.5 49.5q0 2 -4 30l149 -20q4 -20 4 -31q0 -85 -56 -141t-142 -56q-56 0 -91 16t-71 50z" />
    <glyph glyph-name="Odieresis" unicode="&#xd6;" horiz-adv-x="1667" 
d="M834 1454q151 3 290.5 -56t240.5 -159t160 -237t56 -285q3 -148 -56 -285.5t-160 -237.5t-240.5 -158.5t-290.5 -55.5q-151 -3 -290.5 55.5t-240.5 158.5t-160.5 237.5t-56.5 285.5q-3 147 56.5 284.5t160.5 237.5t240.5 159t290.5 56zM834 195q141 0 257.5 65.5
t185.5 185.5t69 271q0 229 -146.5 375.5t-365.5 146.5t-365.5 -148t-146.5 -376q0 -229 148 -374.5t364 -145.5zM537 1616v229h225v-229h-225zM905 1616v229h225v-229h-225z" />
    <glyph glyph-name="multiply" unicode="&#xd7;" horiz-adv-x="1028" 
d="M254 223l-131 131l260 260l-260 260l131 132l260 -261l260 261l131 -132l-260 -260l260 -260l-131 -131l-260 260z" />
    <glyph glyph-name="Oslash" unicode="&#xd8;" horiz-adv-x="1667" 
d="M834 1454q151 3 290.5 -56t240.5 -159t160 -237t56 -285q3 -148 -56 -285.5t-160 -237.5t-240.5 -158.5t-290.5 -55.5q-151 -3 -290.5 55.5t-240.5 158.5t-160.5 237.5t-56.5 285.5q-3 147 56.5 284.5t160.5 237.5t240.5 159t290.5 56zM834 195q141 0 257.5 65.5
t185.5 185.5t69 271q0 229 -146.5 375.5t-365.5 146.5t-365.5 -148t-146.5 -376q0 -229 148 -374.5t364 -145.5zM377 -70l-150 111l1063 1462l150 -110z" />
    <glyph glyph-name="Ugrave" unicode="&#xd9;" horiz-adv-x="1458" 
d="M131 1434h225v-848q0 -183 102 -287t271 -104t271 104t102 287v848h225v-861q0 -266 -163 -429.5t-435 -163.5t-435 163.5t-163 429.5v861zM627 1599l-248 240v33h276l176 -273h-204z" />
    <glyph glyph-name="Uacute" unicode="&#xda;" horiz-adv-x="1458" 
d="M131 1434h225v-848q0 -183 102 -287t271 -104t271 104t102 287v848h225v-861q0 -266 -163 -429.5t-435 -163.5t-435 163.5t-163 429.5v861zM627 1599l176 273h276v-33l-248 -240h-204z" />
    <glyph glyph-name="Ucircumflex" unicode="&#xdb;" horiz-adv-x="1458" 
d="M131 1434h225v-848q0 -183 102 -287t271 -104t271 104t102 287v848h225v-861q0 -266 -163 -429.5t-435 -163.5t-435 163.5t-163 429.5v861zM403 1599v33l256 221h140l256 -221v-33h-224l-102 132l-102 -132h-224z" />
    <glyph glyph-name="Udieresis" unicode="&#xdc;" horiz-adv-x="1458" 
d="M131 1434h225v-848q0 -183 102 -287t271 -104t271 104t102 287v848h225v-861q0 -266 -163 -429.5t-435 -163.5t-435 163.5t-163 429.5v861zM432 1616v229h225v-229h-225zM801 1616v229h225v-229h-225z" />
    <glyph glyph-name="Yacute" unicode="&#xdd;" horiz-adv-x="1421" 
d="M301 1434l410 -652l430 652h256l-574 -850v-584h-225v584l-573 850h276zM608 1599l176 273h277v-33l-248 -240h-205z" />
    <glyph glyph-name="Thorn" unicode="&#xde;" horiz-adv-x="1363" 
d="M373 297v-297h-226v1434h226v-277h440q215 0 338 -124t123 -306q0 -85 -31 -161.5t-87.5 -137t-145.5 -96t-197 -35.5h-440zM373 512h420q110 0 177.5 58.5t67.5 156.5t-67.5 156.5t-177.5 58.5h-420v-430z" />
    <glyph glyph-name="germandbls" unicode="&#xdf;" horiz-adv-x="1218" 
d="M705 176q93 0 147.5 69.5t54.5 196.5q0 134 -102.5 210.5t-247.5 76.5v184q92 13 153.5 66t61.5 137q0 74 -43 114t-119 40q-82 0 -125 -51t-43 -148v-1071h-215v729h-174v184h174v181q0 168 104 264t279 96q166 0 266.5 -85t100.5 -220q0 -198 -189 -293
q143 -25 236 -131q98 -104 98 -276q0 -202 -117 -335.5t-294 -133.5q-112 0 -203 45l37 198q71 -47 160 -47z" />
    <glyph glyph-name="agrave" unicode="&#xe0;" horiz-adv-x="1073" 
d="M92 276q0 153 101.5 232.5t269.5 79.5q89 0 172 -21l102 -24v71q0 95 -63 149t-162 54q-95 0 -156.5 -51.5t-79.5 -140.5l-194 51q33 146 144 230.5t286 84.5q207 0 318.5 -101t111.5 -286v-604h-205v164q-33 -85 -116.5 -134.5t-208.5 -49.5q-127 0 -223.5 81.5
t-96.5 214.5zM737 369v10l-78 20q-105 27 -161 27q-84 0 -132.5 -32.5t-48.5 -96.5q0 -60 46 -96.5t135 -36.5q107 0 173 55t66 150zM410 1137l-248 239v33h276l176 -272h-204z" />
    <glyph glyph-name="aacute" unicode="&#xe1;" horiz-adv-x="1073" 
d="M92 276q0 153 101.5 232.5t269.5 79.5q89 0 172 -21l102 -24v71q0 95 -63 149t-162 54q-95 0 -156.5 -51.5t-79.5 -140.5l-194 51q33 146 144 230.5t286 84.5q207 0 318.5 -101t111.5 -286v-604h-205v164q-33 -85 -116.5 -134.5t-208.5 -49.5q-127 0 -223.5 81.5
t-96.5 214.5zM737 369v10l-78 20q-105 27 -161 27q-84 0 -132.5 -32.5t-48.5 -96.5q0 -60 46 -96.5t135 -36.5q107 0 173 55t66 150zM410 1137l176 272h276v-33l-248 -239h-204z" />
    <glyph glyph-name="acircumflex" unicode="&#xe2;" horiz-adv-x="1073" 
d="M92 276q0 153 101.5 232.5t269.5 79.5q89 0 172 -21l102 -24v71q0 95 -63 149t-162 54q-95 0 -156.5 -51.5t-79.5 -140.5l-194 51q33 146 144 230.5t286 84.5q207 0 318.5 -101t111.5 -286v-604h-205v164q-33 -85 -116.5 -134.5t-208.5 -49.5q-127 0 -223.5 81.5
t-96.5 214.5zM737 369v10l-78 20q-105 27 -161 27q-84 0 -132.5 -32.5t-48.5 -96.5q0 -60 46 -96.5t135 -36.5q107 0 173 55t66 150zM186 1137v32l256 222h140l256 -222v-32h-224l-102 131l-102 -131h-224z" />
    <glyph glyph-name="atilde" unicode="&#xe3;" horiz-adv-x="1073" 
d="M92 276q0 153 101.5 232.5t269.5 79.5q89 0 172 -21l102 -24v71q0 95 -63 149t-162 54q-95 0 -156.5 -51.5t-79.5 -140.5l-194 51q33 146 144 230.5t286 84.5q207 0 318.5 -101t111.5 -286v-604h-205v164q-33 -85 -116.5 -134.5t-208.5 -49.5q-127 0 -223.5 81.5
t-96.5 214.5zM737 369v10l-78 20q-105 27 -161 27q-84 0 -132.5 -32.5t-48.5 -96.5q0 -60 46 -96.5t135 -36.5q107 0 173 55t66 150zM477 1200q-26 22 -41 30.5t-37 8.5q-27 0 -45 -18.5t-18 -49.5q0 -2 4 -30l-150 20q-4 20 -4 31q0 85 56.5 141t142.5 56q56 0 91 -16
t71 -50q26 -22 41 -30.5t37 -8.5q27 0 45 18.5t18 49.5q0 2 -4 30l150 -20q4 -20 4 -31q0 -85 -56.5 -140.5t-142.5 -55.5q-56 0 -91 15.5t-71 49.5z" />
    <glyph glyph-name="adieresis" unicode="&#xe4;" horiz-adv-x="1073" 
d="M92 276q0 153 101.5 232.5t269.5 79.5q89 0 172 -21l102 -24v71q0 95 -63 149t-162 54q-95 0 -156.5 -51.5t-79.5 -140.5l-194 51q33 146 144 230.5t286 84.5q207 0 318.5 -101t111.5 -286v-604h-205v164q-33 -85 -116.5 -134.5t-208.5 -49.5q-127 0 -223.5 81.5
t-96.5 214.5zM737 369v10l-78 20q-105 27 -161 27q-84 0 -132.5 -32.5t-48.5 -96.5q0 -60 46 -96.5t135 -36.5q107 0 173 55t66 150zM215 1153v229h225v-229h-225zM584 1153v229h225v-229h-225z" />
    <glyph glyph-name="aring" unicode="&#xe5;" horiz-adv-x="1073" 
d="M92 276q0 153 101.5 232.5t269.5 79.5q89 0 172 -21l102 -24v71q0 95 -63 149t-162 54q-95 0 -156.5 -51.5t-79.5 -140.5l-194 51q33 146 144 230.5t286 84.5q207 0 318.5 -101t111.5 -286v-604h-205v164q-33 -85 -116.5 -134.5t-208.5 -49.5q-127 0 -223.5 81.5
t-96.5 214.5zM737 369v10l-78 20q-105 27 -161 27q-84 0 -132.5 -32.5t-48.5 -96.5q0 -60 46 -96.5t135 -36.5q107 0 173 55t66 150zM322 1284q0 80 55.5 135.5t134.5 55.5t134.5 -55.5t55.5 -135.5t-55 -135t-135 -55t-135 55t-55 135zM586 1284q0 29 -22.5 51.5
t-51.5 22.5t-51.5 -22.5t-22.5 -51.5t22.5 -51.5t51.5 -22.5t51.5 22.5t22.5 51.5z" />
    <glyph glyph-name="ae" unicode="&#xe6;" horiz-adv-x="1746" 
d="M92 287q0 151 97.5 229t267.5 78h278v20q0 95 -64.5 149t-170.5 54q-98 0 -159 -47t-75 -129l-184 51q74 299 420 299q126 0 220 -42t144 -118q54 74 145 117t195 43q194 0 316.5 -116.5t122.5 -311.5q0 -44 -11 -112h-686q0 -138 86 -214.5t205 -76.5q104 0 171.5 54.5
t90.5 154.5l185 -72q-52 -154 -165.5 -235.5t-283.5 -81.5q-139 0 -245.5 60.5t-149.5 160.5q-135 -221 -414 -221q-147 0 -241.5 88.5t-94.5 218.5zM948 594h482l2 18q0 89 -64 142t-164 53q-101 0 -172 -58t-84 -155zM735 379v59h-229q-89 0 -142 -37.5t-53 -105.5
q0 -62 43 -96.5t121 -34.5q117 0 188.5 58.5t71.5 156.5z" />
    <glyph glyph-name="ccedilla" unicode="&#xe7;" horiz-adv-x="1134" 
d="M586 164q130 0 204.5 74.5t92.5 201.5l194 -71q-36 -184 -165.5 -286.5t-315.5 -102.5q-236 0 -379 140.5t-143 371.5q0 143 67 258t179 178t245 63q181 0 305.5 -95.5t155.5 -260.5l-195 -62q-17 109 -88.5 171.5t-177.5 62.5q-73 0 -137 -35t-106.5 -108.5
t-42.5 -171.5q0 -144 92.5 -236t214.5 -92zM528 -104q40 43 99 43q70 0 114.5 -43t44.5 -115q0 -77 -47.5 -121.5t-126.5 -44.5q-74 0 -123 34.5t-61 100.5l109 27q5 -27 23.5 -43.5t47.5 -16.5q32 0 51 17.5t19 46.5t-19 47t-51 18q-47 0 -69 -36l-107 20q18 65 41 203h115
q-28 -83 -60 -137z" />
    <glyph glyph-name="egrave" unicode="&#xe8;" horiz-adv-x="1087" 
d="M842 369l184 -72q-52 -154 -165 -235.5t-283 -81.5q-226 0 -365 139.5t-139 372.5q0 213 131.5 356t341.5 143q193 0 315.5 -116.5t122.5 -311.5q0 -50 -10 -112h-686q0 -141 86 -215q90 -72 205 -72q104 0 171.5 52.5t90.5 152.5zM289 594h481l2 18q0 89 -63.5 142
t-163.5 53q-101 0 -172 -58t-84 -155zM444 1137l-247 239v33h276l176 -272h-205z" />
    <glyph glyph-name="eacute" unicode="&#xe9;" horiz-adv-x="1087" 
d="M842 369l184 -72q-52 -154 -165 -235.5t-283 -81.5q-226 0 -365 139.5t-139 372.5q0 213 131.5 356t341.5 143q193 0 315.5 -116.5t122.5 -311.5q0 -50 -10 -112h-686q0 -141 86 -215q90 -72 205 -72q104 0 171.5 52.5t90.5 152.5zM289 594h481l2 18q0 89 -63.5 142
t-163.5 53q-101 0 -172 -58t-84 -155zM444 1137l177 272h276v-33l-248 -239h-205z" />
    <glyph glyph-name="ecircumflex" unicode="&#xea;" horiz-adv-x="1087" 
d="M842 369l184 -72q-52 -154 -165 -235.5t-283 -81.5q-226 0 -365 139.5t-139 372.5q0 213 131.5 356t341.5 143q193 0 315.5 -116.5t122.5 -311.5q0 -50 -10 -112h-686q0 -141 86 -215q90 -72 205 -72q104 0 171.5 52.5t90.5 152.5zM289 594h481l2 18q0 89 -63.5 142
t-163.5 53q-101 0 -172 -58t-84 -155zM221 1137v32l256 222h139l256 -222v-32h-223l-102 131l-103 -131h-223z" />
    <glyph glyph-name="edieresis" unicode="&#xeb;" horiz-adv-x="1087" 
d="M842 369l184 -72q-52 -154 -165 -235.5t-283 -81.5q-226 0 -365 139.5t-139 372.5q0 213 131.5 356t341.5 143q193 0 315.5 -116.5t122.5 -311.5q0 -50 -10 -112h-686q0 -141 86 -215q90 -72 205 -72q104 0 171.5 52.5t90.5 152.5zM289 594h481l2 18q0 89 -63.5 142
t-163.5 53q-101 0 -172 -58t-84 -155zM250 1153v229h225v-229h-225zM618 1153v229h226v-229h-226z" />
    <glyph glyph-name="igrave" unicode="&#xec;" horiz-adv-x="477" 
d="M131 971h215v-971h-215v971zM137 1137l-248 239v33h277l176 -272h-205z" />
    <glyph glyph-name="iacute" unicode="&#xed;" horiz-adv-x="477" 
d="M131 971h215v-971h-215v971zM137 1137l176 272h277v-33l-248 -239h-205z" />
    <glyph glyph-name="icircumflex" unicode="&#xee;" horiz-adv-x="477" 
d="M131 971h215v-971h-215v971zM-86 1137v32l256 222h139l256 -222v-32h-223l-102 131l-103 -131h-223z" />
    <glyph glyph-name="idieresis" unicode="&#xef;" horiz-adv-x="477" 
d="M131 971h215v-971h-215v971zM-57 1153v229h225v-229h-225zM311 1153v229h226v-229h-226z" />
    <glyph glyph-name="eth" unicode="&#xf0;" horiz-adv-x="1130" 
d="M74 481q0 143 59 259t168 183.5t248 67.5q74 0 143 -28.5t107 -75.5q-57 134 -154 239l-59 -69l-121 102l63 74q-4 3 -18.5 14t-34.5 26t-43 30l127 151q78 -60 96 -76l68 76l121 -102l-72 -82q285 -301 285 -758q0 -237 -134 -384.5t-358 -147.5q-218 0 -354.5 142
t-136.5 359zM842 481q0 140 -77 228t-200 88t-199.5 -88t-76.5 -228q0 -137 76.5 -222t199.5 -85t200 85.5t77 221.5z" />
    <glyph glyph-name="ntilde" unicode="&#xf1;" horiz-adv-x="1122" 
d="M346 0h-215v971h215v-142q97 162 305 162q154 0 247 -96t93 -260v-635h-215v561q0 116 -54 181t-147 65q-100 0 -164.5 -72t-64.5 -194v-541zM551 1200q-26 22 -41 30.5t-37 8.5q-27 0 -45 -18.5t-18 -49.5q0 -2 4 -30l-150 20q-4 20 -4 31q0 85 56.5 141t142.5 56
q56 0 91 -16t71 -50q26 -23 40.5 -31t36.5 -8q27 0 45.5 18.5t18.5 49.5q0 2 -4 30l149 -20q4 -20 4 -31q0 -85 -56 -140.5t-142 -55.5q-56 0 -91 15.5t-71 49.5z" />
    <glyph glyph-name="ograve" unicode="&#xf2;" horiz-adv-x="1146" 
d="M74 485q0 217 140.5 361.5t358.5 144.5t359 -144.5t141 -361.5t-141 -361t-359 -144t-358.5 144t-140.5 361zM858 485q0 136 -81 224t-204 88t-203.5 -88t-80.5 -224t80.5 -223.5t203.5 -87.5t204 87.5t81 223.5zM471 1137l-248 239v33h277l176 -272h-205z" />
    <glyph glyph-name="oacute" unicode="&#xf3;" horiz-adv-x="1146" 
d="M74 485q0 217 140.5 361.5t358.5 144.5t359 -144.5t141 -361.5t-141 -361t-359 -144t-358.5 144t-140.5 361zM858 485q0 136 -81 224t-204 88t-203.5 -88t-80.5 -224t80.5 -223.5t203.5 -87.5t204 87.5t81 223.5zM471 1137l176 272h277v-33l-248 -239h-205z" />
    <glyph glyph-name="ocircumflex" unicode="&#xf4;" horiz-adv-x="1146" 
d="M74 485q0 217 140.5 361.5t358.5 144.5t359 -144.5t141 -361.5t-141 -361t-359 -144t-358.5 144t-140.5 361zM858 485q0 136 -81 224t-204 88t-203.5 -88t-80.5 -224t80.5 -223.5t203.5 -87.5t204 87.5t81 223.5zM248 1137v32l256 222h139l256 -222v-32h-223l-103 131
l-102 -131h-223z" />
    <glyph glyph-name="otilde" unicode="&#xf5;" horiz-adv-x="1146" 
d="M74 485q0 217 140.5 361.5t358.5 144.5t359 -144.5t141 -361.5t-141 -361t-359 -144t-358.5 144t-140.5 361zM858 485q0 136 -81 224t-204 88t-203.5 -88t-80.5 -224t80.5 -223.5t203.5 -87.5t204 87.5t81 223.5zM539 1200q-26 22 -41 30.5t-37 8.5q-27 0 -45.5 -18.5
t-18.5 -49.5q0 -2 4 -30l-149 20q-4 20 -4 31q0 85 56 141t142 56q56 0 91 -16t71 -50q26 -22 41 -30.5t37 -8.5q27 0 45.5 18.5t18.5 49.5q0 3 -2 13.5t-3 16.5l150 -20q4 -20 4 -31q0 -85 -56.5 -140.5t-142.5 -55.5q-56 0 -90.5 15.5t-70.5 49.5z" />
    <glyph glyph-name="odieresis" unicode="&#xf6;" horiz-adv-x="1146" 
d="M74 485q0 217 140.5 361.5t358.5 144.5t359 -144.5t141 -361.5t-141 -361t-359 -144t-358.5 144t-140.5 361zM858 485q0 136 -81 224t-204 88t-203.5 -88t-80.5 -224t80.5 -223.5t203.5 -87.5t204 87.5t81 223.5zM276 1153v229h226v-229h-226zM645 1153v229h225v-229
h-225z" />
    <glyph glyph-name="divide" unicode="&#xf7;" horiz-adv-x="1167" 
d="M481 829v205h205v-205h-205zM123 522v185h921v-185h-921zM481 195v204h205v-204h-205z" />
    <glyph glyph-name="oslash" unicode="&#xf8;" horiz-adv-x="1146" 
d="M1073 485q0 -217 -141 -361t-359 -144q-45 0 -86 6l-41 -109l-174 64l39 106q-111 66 -174 182t-63 256q0 217 140.5 361.5t358.5 144.5q43 0 84 -6l41 109l174 -64l-38 -106q112 -63 175.5 -179.5t63.5 -259.5zM385 246l203 551h-15q-123 0 -203.5 -88t-80.5 -224
q0 -146 96 -239zM858 485q0 153 -98 242l-203 -553h16q123 0 204 87.5t81 223.5z" />
    <glyph glyph-name="ugrave" unicode="&#xf9;" horiz-adv-x="1132" 
d="M786 971h215v-971h-215v154q-104 -174 -301 -174q-164 0 -259 94t-95 274v623h215v-572q0 -114 51 -174.5t144 -60.5q110 0 177.5 81t67.5 216v510zM465 1137l-248 239v33h277l176 -272h-205z" />
    <glyph glyph-name="uacute" unicode="&#xfa;" horiz-adv-x="1132" 
d="M786 971h215v-971h-215v154q-104 -174 -301 -174q-164 0 -259 94t-95 274v623h215v-572q0 -114 51 -174.5t144 -60.5q110 0 177.5 81t67.5 216v510zM465 1137l176 272h277v-33l-248 -239h-205z" />
    <glyph glyph-name="ucircumflex" unicode="&#xfb;" horiz-adv-x="1132" 
d="M786 971h215v-971h-215v154q-104 -174 -301 -174q-164 0 -259 94t-95 274v623h215v-572q0 -114 51 -174.5t144 -60.5q110 0 177.5 81t67.5 216v510zM242 1137v32l256 222h139l256 -222v-32h-223l-103 131l-102 -131h-223z" />
    <glyph glyph-name="udieresis" unicode="&#xfc;" horiz-adv-x="1132" 
d="M786 971h215v-971h-215v154q-104 -174 -301 -174q-164 0 -259 94t-95 274v623h215v-572q0 -114 51 -174.5t144 -60.5q110 0 177.5 81t67.5 216v510zM270 1153v229h226v-229h-226zM639 1153v229h225v-229h-225z" />
    <glyph glyph-name="yacute" unicode="&#xfd;" horiz-adv-x="1042" 
d="M793 971h225l-656 -1377h-225l260 549l-383 828h232l264 -594zM414 1137l176 272h276v-33l-248 -239h-204z" />
    <glyph glyph-name="thorn" unicode="&#xfe;" horiz-adv-x="1187" 
d="M131 1434h215v-635q49 88 138.5 140t189.5 52q196 0 318 -143.5t122 -368.5q0 -223 -127 -361t-334 -138q-99 0 -181.5 40.5t-125.5 114.5v-541h-215v1840zM618 170q119 0 200 86t81 223t-82 227.5t-199 90.5q-111 0 -195.5 -90.5t-84.5 -227.5t83 -223t197 -86z" />
    <glyph glyph-name="ydieresis" unicode="&#xff;" horiz-adv-x="1042" 
d="M793 971h225l-656 -1377h-225l260 549l-383 828h232l264 -594zM219 1153v229h225v-229h-225zM588 1153v229h225v-229h-225z" />
    <glyph glyph-name="Amacron" unicode="&#x100;" horiz-adv-x="1540" 
d="M25 0l589 1434h312l590 -1434h-254l-138 348h-708l-137 -348h-254zM496 553h548l-274 694zM504 1802h532v-160h-532v160z" />
    <glyph glyph-name="amacron" unicode="&#x101;" horiz-adv-x="1073" 
d="M92 276q0 153 101.5 232.5t269.5 79.5q89 0 172 -21l102 -24v71q0 95 -63 149t-162 54q-95 0 -156.5 -51.5t-79.5 -140.5l-194 51q33 146 144 230.5t286 84.5q207 0 318.5 -101t111.5 -286v-604h-205v164q-33 -85 -116.5 -134.5t-208.5 -49.5q-127 0 -223.5 81.5
t-96.5 214.5zM737 369v10l-78 20q-105 27 -161 27q-84 0 -132.5 -32.5t-48.5 -96.5q0 -60 46 -96.5t135 -36.5q107 0 173 55t66 150zM246 1339h532v-159h-532v159z" />
    <glyph glyph-name="Abreve" unicode="&#x102;" horiz-adv-x="1540" 
d="M25 0l589 1434h312l590 -1434h-254l-138 348h-708l-137 -348h-254zM496 553h548l-274 694zM1026 1823q0 -107 -71 -167.5t-185 -60.5t-185 60.5t-71 167.5q0 22 2 28h156l-2 -20q0 -39 28 -65.5t72 -26.5t72 26.5t28 65.5l-2 20h156q2 -6 2 -28z" />
    <glyph glyph-name="abreve" unicode="&#x103;" horiz-adv-x="1073" 
d="M92 276q0 153 101.5 232.5t269.5 79.5q89 0 172 -21l102 -24v71q0 95 -63 149t-162 54q-95 0 -156.5 -51.5t-79.5 -140.5l-194 51q33 146 144 230.5t286 84.5q207 0 318.5 -101t111.5 -286v-604h-205v164q-33 -85 -116.5 -134.5t-208.5 -49.5q-127 0 -223.5 81.5
t-96.5 214.5zM737 369v10l-78 20q-105 27 -161 27q-84 0 -132.5 -32.5t-48.5 -96.5q0 -60 46 -96.5t135 -36.5q107 0 173 55t66 150zM768 1360q0 -107 -71 -167t-185 -60t-185 60t-71 167q0 23 2 29h156l-2 -21q0 -39 28 -65.5t72 -26.5t72 26.5t28 65.5l-2 21h156
q2 -6 2 -29z" />
    <glyph glyph-name="Aogonek" unicode="&#x104;" horiz-adv-x="1540" 
d="M25 0l589 1434h312l590 -1434h-254l-138 348h-708l-137 -348h-254zM496 553h548l-274 694zM1430 -389q-84 0 -135.5 48.5t-51.5 123.5q0 133 141 217h132q-115 -77 -115 -152q0 -30 21.5 -49.5t52.5 -19.5q29 0 65 22l66 -143q-81 -47 -176 -47z" />
    <glyph glyph-name="aogonek" unicode="&#x105;" horiz-adv-x="1073" 
d="M92 276q0 153 101.5 232.5t269.5 79.5q89 0 172 -21l102 -24v71q0 95 -63 149t-162 54q-95 0 -156.5 -51.5t-79.5 -140.5l-194 51q33 146 144 230.5t286 84.5q207 0 318.5 -101t111.5 -286v-604h-205v164q-33 -85 -116.5 -134.5t-208.5 -49.5q-127 0 -223.5 81.5
t-96.5 214.5zM737 369v10l-78 20q-105 27 -161 27q-84 0 -132.5 -32.5t-48.5 -96.5q0 -60 46 -96.5t135 -36.5q107 0 173 55t66 150zM856 -389q-84 0 -135 48.5t-51 123.5q0 133 141 217h131q-115 -77 -115 -152q0 -30 21.5 -49.5t52.5 -19.5q30 0 66 22l65 -143
q-81 -47 -176 -47z" />
    <glyph glyph-name="Cacute" unicode="&#x106;" horiz-adv-x="1605" 
d="M322 717q0 -247 135 -390t356 -143q224 0 356 129t166 322l205 -82q-57 -257 -248.5 -415t-478.5 -158q-211 -3 -379 94.5t-259 266.5t-89 376q-3 152 53.5 289.5t153.5 236.5t233.5 156.5t286.5 54.5q133 0 245 -38.5t190.5 -105.5t131.5 -152.5t78 -184.5l-205 -92
q-33 167 -147.5 267.5t-292.5 100.5q-213 0 -352 -147t-139 -385zM700 1599l177 273h276v-33l-248 -240h-205z" />
    <glyph glyph-name="cacute" unicode="&#x107;" horiz-adv-x="1134" 
d="M586 164q130 0 204.5 74.5t92.5 201.5l194 -71q-36 -184 -165.5 -286.5t-315.5 -102.5q-236 0 -379 140.5t-143 371.5q0 143 67 258t179 178t245 63q181 0 305.5 -95.5t155.5 -260.5l-195 -62q-17 109 -88.5 171.5t-177.5 62.5q-73 0 -137 -35t-106.5 -108.5
t-42.5 -171.5q0 -144 92.5 -236t214.5 -92zM463 1137l176 272h276v-33l-247 -239h-205z" />
    <glyph glyph-name="Ccircumflex" unicode="&#x108;" horiz-adv-x="1605" 
d="M322 717q0 -247 135 -390t356 -143q224 0 356 129t166 322l205 -82q-57 -257 -248.5 -415t-478.5 -158q-211 -3 -379 94.5t-259 266.5t-89 376q-3 152 53.5 289.5t153.5 236.5t233.5 156.5t286.5 54.5q133 0 245 -38.5t190.5 -105.5t131.5 -152.5t78 -184.5l-205 -92
q-33 167 -147.5 267.5t-292.5 100.5q-213 0 -352 -147t-139 -385zM477 1599v33l256 221h139l256 -221v-33h-223l-102 132l-103 -132h-223z" />
    <glyph glyph-name="ccircumflex" unicode="&#x109;" horiz-adv-x="1134" 
d="M586 164q130 0 204.5 74.5t92.5 201.5l194 -71q-36 -184 -165.5 -286.5t-315.5 -102.5q-236 0 -379 140.5t-143 371.5q0 143 67 258t179 178t245 63q181 0 305.5 -95.5t155.5 -260.5l-195 -62q-17 109 -88.5 171.5t-177.5 62.5q-73 0 -137 -35t-106.5 -108.5
t-42.5 -171.5q0 -144 92.5 -236t214.5 -92zM240 1137v32l256 222h139l256 -222v-32h-223l-103 131l-102 -131h-223z" />
    <glyph glyph-name="Cdotaccent" unicode="&#x10a;" horiz-adv-x="1605" 
d="M322 717q0 -247 135 -390t356 -143q224 0 356 129t166 322l205 -82q-57 -257 -248.5 -415t-478.5 -158q-211 -3 -379 94.5t-259 266.5t-89 376q-3 152 53.5 289.5t153.5 236.5t233.5 156.5t286.5 54.5q133 0 245 -38.5t190.5 -105.5t131.5 -152.5t78 -184.5l-205 -92
q-33 167 -147.5 267.5t-292.5 100.5q-213 0 -352 -147t-139 -385zM684 1851h236v-235h-236v235z" />
    <glyph glyph-name="cdotaccent" unicode="&#x10b;" horiz-adv-x="1134" 
d="M586 164q130 0 204.5 74.5t92.5 201.5l194 -71q-36 -184 -165.5 -286.5t-315.5 -102.5q-236 0 -379 140.5t-143 371.5q0 143 67 258t179 178t245 63q181 0 305.5 -95.5t155.5 -260.5l-195 -62q-17 109 -88.5 171.5t-177.5 62.5q-73 0 -137 -35t-106.5 -108.5
t-42.5 -171.5q0 -144 92.5 -236t214.5 -92zM446 1137v235h236v-235h-236z" />
    <glyph glyph-name="Ccaron" unicode="&#x10c;" horiz-adv-x="1605" 
d="M322 717q0 -247 135 -390t356 -143q224 0 356 129t166 322l205 -82q-57 -257 -248.5 -415t-478.5 -158q-211 -3 -379 94.5t-259 266.5t-89 376q-3 152 53.5 289.5t153.5 236.5t233.5 156.5t286.5 54.5q133 0 245 -38.5t190.5 -105.5t131.5 -152.5t78 -184.5l-205 -92
q-33 167 -147.5 267.5t-292.5 100.5q-213 0 -352 -147t-139 -385zM733 1599l-256 222v32h223l103 -131l102 131h223v-32l-256 -222h-139z" />
    <glyph glyph-name="ccaron" unicode="&#x10d;" horiz-adv-x="1134" 
d="M586 164q130 0 204.5 74.5t92.5 201.5l194 -71q-36 -184 -165.5 -286.5t-315.5 -102.5q-236 0 -379 140.5t-143 371.5q0 143 67 258t179 178t245 63q181 0 305.5 -95.5t155.5 -260.5l-195 -62q-17 109 -88.5 171.5t-177.5 62.5q-73 0 -137 -35t-106.5 -108.5
t-42.5 -171.5q0 -144 92.5 -236t214.5 -92zM496 1137l-256 221v33h223l102 -131l103 131h223v-33l-256 -221h-139z" />
    <glyph glyph-name="Dcaron" unicode="&#x10e;" horiz-adv-x="1492" 
d="M147 0v1434h543q226 0 390 -94t245.5 -256.5t81.5 -376.5q0 -152 -48.5 -281.5t-138.5 -224t-226.5 -148t-303.5 -53.5h-543zM373 1229v-1024h317q116 0 210 40t155 109t94 159.5t33 193.5q0 233 -128.5 377.5t-363.5 144.5h-317zM522 1599l-256 222v32h223l103 -131
l102 131h224v-32l-256 -222h-140z" />
    <glyph glyph-name="dcaron" unicode="&#x10f;" horiz-adv-x="1425" 
d="M74 479q0 225 124 368.5t326 143.5q110 0 193 -51t125 -141v635h215v-1434h-207v164q-44 -87 -130.5 -135.5t-195.5 -48.5q-202 0 -326 140t-124 359zM850 479q0 138 -83.5 228t-197.5 90q-117 0 -198.5 -90t-81.5 -228q0 -139 80 -225q84 -84 200 -84q115 0 198 85.5
t83 223.5zM1165 971v123h47q91 0 91 61q0 30 -19 46t-51 16h-53v217h245v-269q0 -101 -60 -147.5t-165 -46.5h-35z" />
    <glyph glyph-name="Dcroat" unicode="&#x110;" horiz-adv-x="1492" 
d="M147 0v1434h543q226 0 390 -94t245.5 -256.5t81.5 -376.5q0 -152 -48.5 -281.5t-138.5 -224t-226.5 -148t-303.5 -53.5h-543zM373 1229v-1024h317q116 0 210 40t155 109t94 159.5t33 193.5q0 233 -128.5 377.5t-363.5 144.5h-317zM-16 809h807v-184h-807v184z" />
    <glyph glyph-name="dslash" unicode="&#x111;" horiz-adv-x="1187" 
d="M74 479q0 225 124 368.5t326 143.5q110 0 193 -51t125 -141v635h215v-1434h-207v164q-44 -87 -130.5 -135.5t-195.5 -48.5q-202 0 -326 140t-124 359zM850 479q0 138 -83.5 228t-197.5 90q-117 0 -198.5 -90t-81.5 -228q0 -139 80 -225q84 -84 200 -84q115 0 198 85.5
t83 223.5zM545 1309h643v-174h-643v174z" />
    <glyph glyph-name="Emacron" unicode="&#x112;" horiz-adv-x="1314" 
d="M147 1434h1045v-215h-819v-369h757v-215h-757v-420h839v-215h-1065v1434zM403 1802h533v-160h-533v160z" />
    <glyph glyph-name="emacron" unicode="&#x113;" horiz-adv-x="1087" 
d="M842 369l184 -72q-52 -154 -165 -235.5t-283 -81.5q-226 0 -365 139.5t-139 372.5q0 213 131.5 356t341.5 143q193 0 315.5 -116.5t122.5 -311.5q0 -50 -10 -112h-686q0 -141 86 -215q90 -72 205 -72q104 0 171.5 52.5t90.5 152.5zM289 594h481l2 18q0 89 -63.5 142
t-163.5 53q-101 0 -172 -58t-84 -155zM281 1339h532v-159h-532v159z" />
    <glyph glyph-name="Ebreve" unicode="&#x114;" horiz-adv-x="1314" 
d="M147 1434h1045v-215h-819v-369h757v-215h-757v-420h839v-215h-1065v1434zM926 1823q0 -107 -71 -167.5t-185 -60.5t-185 60.5t-71 167.5q0 22 2 28h155l-2 -20q0 -39 28.5 -65.5t72.5 -26.5t72 26.5t28 65.5l-2 20h156q2 -6 2 -28z" />
    <glyph glyph-name="ebreve" unicode="&#x115;" horiz-adv-x="1087" 
d="M842 369l184 -72q-52 -154 -165 -235.5t-283 -81.5q-226 0 -365 139.5t-139 372.5q0 213 131.5 356t341.5 143q193 0 315.5 -116.5t122.5 -311.5q0 -50 -10 -112h-686q0 -141 86 -215q90 -72 205 -72q104 0 171.5 52.5t90.5 152.5zM289 594h481l2 18q0 89 -63.5 142
t-163.5 53q-101 0 -172 -58t-84 -155zM803 1360q0 -107 -71 -167t-185 -60t-185 60t-71 167q0 23 2 29h156l-3 -21q0 -39 28.5 -65.5t72.5 -26.5t72 26.5t28 65.5l-2 21h156q2 -6 2 -29z" />
    <glyph glyph-name="Edotaccent" unicode="&#x116;" horiz-adv-x="1314" 
d="M147 1434h1045v-215h-819v-369h757v-215h-757v-420h839v-215h-1065v1434zM551 1851h235v-235h-235v235z" />
    <glyph glyph-name="edotaccent" unicode="&#x117;" horiz-adv-x="1087" 
d="M842 369l184 -72q-52 -154 -165 -235.5t-283 -81.5q-226 0 -365 139.5t-139 372.5q0 213 131.5 356t341.5 143q193 0 315.5 -116.5t122.5 -311.5q0 -50 -10 -112h-686q0 -141 86 -215q90 -72 205 -72q104 0 171.5 52.5t90.5 152.5zM289 594h481l2 18q0 89 -63.5 142
t-163.5 53q-101 0 -172 -58t-84 -155zM428 1137v235h236v-235h-236z" />
    <glyph glyph-name="Eogonek" unicode="&#x118;" horiz-adv-x="1314" 
d="M147 1434h1045v-215h-819v-369h757v-215h-757v-420h839v-215h-1065v1434zM1126 -389q-84 0 -135 48.5t-51 123.5q0 133 141 217h131q-114 -76 -114 -152q0 -30 21 -49.5t52 -19.5q30 0 66 22l66 -143q-81 -47 -177 -47z" />
    <glyph glyph-name="eogonek" unicode="&#x119;" horiz-adv-x="1087" 
d="M842 369l184 -72q-52 -154 -165 -235.5t-283 -81.5q-226 0 -365 139.5t-139 372.5q0 213 131.5 356t341.5 143q193 0 315.5 -116.5t122.5 -311.5q0 -50 -10 -112h-686q0 -141 86 -215q90 -72 205 -72q104 0 171.5 52.5t90.5 152.5zM289 594h481l2 18q0 89 -63.5 142
t-163.5 53q-101 0 -172 -58t-84 -155zM618 -389q-84 0 -135 48.5t-51 123.5q0 133 141 217h132q-115 -77 -115 -152q0 -30 21.5 -49.5t52.5 -19.5q29 0 65 22l66 -143q-81 -47 -177 -47z" />
    <glyph glyph-name="Ecaron" unicode="&#x11a;" horiz-adv-x="1314" 
d="M147 1434h1045v-215h-819v-369h757v-215h-757v-420h839v-215h-1065v1434zM600 1599l-256 222v32h223l103 -131l102 131h223v-32l-256 -222h-139z" />
    <glyph glyph-name="ecaron" unicode="&#x11b;" horiz-adv-x="1087" 
d="M842 369l184 -72q-52 -154 -165 -235.5t-283 -81.5q-226 0 -365 139.5t-139 372.5q0 213 131.5 356t341.5 143q193 0 315.5 -116.5t122.5 -311.5q0 -50 -10 -112h-686q0 -141 86 -215q90 -72 205 -72q104 0 171.5 52.5t90.5 152.5zM289 594h481l2 18q0 89 -63.5 142
t-163.5 53q-101 0 -172 -58t-84 -155zM477 1137l-256 221v33h223l103 -131l102 131h223v-33l-256 -221h-139z" />
    <glyph glyph-name="Gcircumflex" unicode="&#x11c;" horiz-adv-x="1619" 
d="M793 -20q-199 -3 -362 92.5t-255.5 265.5t-89.5 379q-2 152 53.5 289.5t151 236.5t230 156.5t282.5 54.5q280 0 457 -139q176 -136 235 -363l-225 -71q-36 177 -155.5 267.5t-305.5 90.5q-134 0 -244.5 -65t-176.5 -185t-66 -272q0 -227 140 -374.5t351 -147.5
q73 0 137.5 21t110.5 55.5t82 80.5t56.5 94t29.5 97h-621v215h897v-758h-192v305q-153 -325 -520 -325zM477 1599v33l256 221h139l256 -221v-33h-223l-102 132l-103 -132h-223z" />
    <glyph glyph-name="gcircumflex" unicode="&#x11d;" horiz-adv-x="1187" 
d="M125 -123l194 82q23 -97 93 -149t174 -52q130 0 193 81.5t63 232.5v102q-39 -81 -125 -127.5t-203 -46.5q-188 0 -314 133.5t-126 347.5q0 224 133 367t328 143q205 0 307 -151v131h215v-889q0 -231 -123 -369q-124 -139 -348 -139q-360 0 -461 303zM850 494
q0 136 -80 224.5t-201 88.5q-123 0 -201.5 -89.5t-78.5 -236.5q0 -135 78.5 -216t201.5 -81q121 0 201 86q80 89 80 224zM264 1137v32l256 222h139l256 -222v-32h-223l-102 131l-103 -131h-223z" />
    <glyph glyph-name="Gbreve" unicode="&#x11e;" horiz-adv-x="1619" 
d="M793 -20q-199 -3 -362 92.5t-255.5 265.5t-89.5 379q-2 152 53.5 289.5t151 236.5t230 156.5t282.5 54.5q280 0 457 -139q176 -136 235 -363l-225 -71q-36 177 -155.5 267.5t-305.5 90.5q-134 0 -244.5 -65t-176.5 -185t-66 -272q0 -227 140 -374.5t351 -147.5
q73 0 137.5 21t110.5 55.5t82 80.5t56.5 94t29.5 97h-621v215h897v-758h-192v305q-153 -325 -520 -325zM1059 1823q0 -107 -71 -167.5t-185 -60.5t-185 60.5t-71 167.5q0 22 2 28h156l-3 -20q0 -39 28.5 -65.5t72.5 -26.5t72 26.5t28 65.5l-2 20h156q2 -6 2 -28z" />
    <glyph glyph-name="gbreve" unicode="&#x11f;" horiz-adv-x="1187" 
d="M125 -123l194 82q23 -97 93 -149t174 -52q130 0 193 81.5t63 232.5v102q-39 -81 -125 -127.5t-203 -46.5q-188 0 -314 133.5t-126 347.5q0 224 133 367t328 143q205 0 307 -151v131h215v-889q0 -231 -123 -369q-124 -139 -348 -139q-360 0 -461 303zM850 494
q0 136 -80 224.5t-201 88.5q-123 0 -201.5 -89.5t-78.5 -236.5q0 -135 78.5 -216t201.5 -81q121 0 201 86q80 89 80 224zM846 1360q0 -107 -71 -167t-185 -60t-185 60t-71 167q0 23 2 29h156l-3 -21q0 -39 28.5 -65.5t72.5 -26.5t72 26.5t28 65.5l-2 21h156q2 -6 2 -29z" />
    <glyph glyph-name="Gdotaccent" unicode="&#x120;" horiz-adv-x="1619" 
d="M793 -20q-199 -3 -362 92.5t-255.5 265.5t-89.5 379q-2 152 53.5 289.5t151 236.5t230 156.5t282.5 54.5q280 0 457 -139q176 -136 235 -363l-225 -71q-36 177 -155.5 267.5t-305.5 90.5q-134 0 -244.5 -65t-176.5 -185t-66 -272q0 -227 140 -374.5t351 -147.5
q73 0 137.5 21t110.5 55.5t82 80.5t56.5 94t29.5 97h-621v215h897v-758h-192v305q-153 -325 -520 -325zM684 1851h236v-235h-236v235z" />
    <glyph glyph-name="gdotaccent" unicode="&#x121;" horiz-adv-x="1187" 
d="M125 -123l194 82q23 -97 93 -149t174 -52q130 0 193 81.5t63 232.5v102q-39 -81 -125 -127.5t-203 -46.5q-188 0 -314 133.5t-126 347.5q0 224 133 367t328 143q205 0 307 -151v131h215v-889q0 -231 -123 -369q-124 -139 -348 -139q-360 0 -461 303zM850 494
q0 136 -80 224.5t-201 88.5q-123 0 -201.5 -89.5t-78.5 -236.5q0 -135 78.5 -216t201.5 -81q121 0 201 86q80 89 80 224zM471 1137v235h236v-235h-236z" />
    <glyph glyph-name="Gcommaaccent" unicode="&#x122;" horiz-adv-x="1619" 
d="M793 -20q-199 -3 -362 92.5t-255.5 265.5t-89.5 379q-2 152 53.5 289.5t151 236.5t230 156.5t282.5 54.5q280 0 457 -139q176 -136 235 -363l-225 -71q-36 177 -155.5 267.5t-305.5 90.5q-134 0 -244.5 -65t-176.5 -185t-66 -272q0 -227 140 -374.5t351 -147.5
q73 0 137.5 21t110.5 55.5t82 80.5t56.5 94t29.5 97h-621v215h897v-758h-192v305q-153 -325 -520 -325zM625 -543l26 123q47 -18 88 -18q31 0 50.5 16t19.5 45q0 30 -19 46t-51 16h-53v209h242v-267q0 -95 -52 -141.5t-135 -46.5q-61 0 -116 18z" />
    <glyph glyph-name="gcommaaccent" unicode="&#x123;" horiz-adv-x="1187" 
d="M125 -123l194 82q23 -97 93 -149t174 -52q130 0 193 81.5t63 232.5v102q-39 -81 -125 -127.5t-203 -46.5q-188 0 -314 133.5t-126 347.5q0 224 133 367t328 143q205 0 307 -151v131h215v-889q0 -231 -123 -369q-124 -139 -348 -139q-360 0 -461 303zM850 494
q0 136 -80 224.5t-201 88.5q-123 0 -201.5 -89.5t-78.5 -236.5q0 -135 78.5 -216t201.5 -81q121 0 201 86q80 89 80 224zM684 1110h-246v307q0 185 226 185h61v-123h-74q-90 0 -90 -62q0 -61 70 -61h53v-246z" />
    <glyph glyph-name="Hcircumflex" unicode="&#x124;" horiz-adv-x="1523" 
d="M1151 604h-778v-604h-226v1434h226v-625h778v625h225v-1434h-225v604zM436 1599v33l256 221h139l256 -221v-33h-223l-102 132l-103 -132h-223z" />
    <glyph glyph-name="hcircumflex" unicode="&#x125;" horiz-adv-x="1159" 
d="M346 0h-215v1434h215v-662q38 103 126.5 161t209.5 58q158 0 252 -97.5t94 -254.5v-639h-215v578q0 115 -57 175t-166 60q-106 0 -175 -81.5t-69 -215.5v-516zM-88 1599v33l256 221h139l256 -221v-33h-223l-102 132l-103 -132h-223z" />
    <glyph glyph-name="Hbar" unicode="&#x126;" horiz-adv-x="1523" 
d="M1151 604h-778v-604h-226v1434h226v-625h778v625h225v-1434h-225v604zM-10 1024v195h1544v-195h-1544z" />
    <glyph glyph-name="hbar" unicode="&#x127;" horiz-adv-x="1159" 
d="M346 0h-215v1434h215v-662q38 103 126.5 161t209.5 58q158 0 252 -97.5t94 -254.5v-639h-215v578q0 115 -57 175t-166 60q-106 0 -175 -81.5t-69 -215.5v-516zM0 1309h643v-174h-643v174z" />
    <glyph glyph-name="Itilde" unicode="&#x128;" horiz-adv-x="520" 
d="M147 0v1434h226v-1434h-226zM225 1663q-26 22 -41 30.5t-37 8.5q-27 0 -45 -18.5t-18 -49.5q0 -2 4 -30l-149 20q-5 25 -5 31q0 85 56.5 140.5t142.5 55.5q56 0 91 -15.5t71 -49.5q26 -22 41 -30.5t37 -8.5q27 0 45 18.5t18 49.5q0 2 -4 30l150 -20q4 -20 4 -31
q0 -85 -56.5 -141t-142.5 -56q-56 0 -91 16t-71 50z" />
    <glyph glyph-name="itilde" unicode="&#x129;" horiz-adv-x="477" 
d="M131 971h215v-971h-215v971zM205 1200q-26 22 -41 30.5t-37 8.5q-27 0 -45.5 -18.5t-18.5 -49.5q0 -3 2 -13.5t3 -16.5l-150 20q-4 20 -4 31q0 85 56.5 141t142.5 56q56 0 90.5 -16t70.5 -50q26 -22 41 -30.5t37 -8.5q27 0 45.5 18.5t18.5 49.5q0 2 -4 30l149 -20
q4 -20 4 -31q0 -85 -56 -140.5t-142 -55.5q-56 0 -91 15.5t-71 49.5z" />
    <glyph glyph-name="Imacron" unicode="&#x12a;" horiz-adv-x="520" 
d="M147 0v1434h226v-1434h-226zM-6 1802h532v-160h-532v160z" />
    <glyph glyph-name="imacron" unicode="&#x12b;" horiz-adv-x="477" 
d="M131 971h215v-971h-215v971zM-27 1339h533v-159h-533v159z" />
    <glyph glyph-name="Ibreve" unicode="&#x12c;" horiz-adv-x="520" 
d="M147 0v1434h226v-1434h-226zM516 1823q0 -107 -71 -167.5t-185 -60.5t-185 60.5t-71 167.5q0 22 2 28h156l-2 -20q0 -39 28 -65.5t72 -26.5t72 26.5t28 65.5l-2 20h156q2 -6 2 -28z" />
    <glyph glyph-name="ibreve" unicode="&#x12d;" horiz-adv-x="477" 
d="M131 971h215v-971h-215v971zM496 1360q0 -107 -71 -167t-185 -60t-185 60t-71 167q0 23 2 29h155l-2 -21q0 -39 28.5 -65.5t72.5 -26.5t72 26.5t28 65.5l-2 21h156q2 -6 2 -29z" />
    <glyph glyph-name="Iogonek" unicode="&#x12e;" horiz-adv-x="520" 
d="M147 0v1434h226v-1434h-226zM287 -389q-84 0 -135.5 48.5t-51.5 123.5q0 133 142 217h131q-115 -77 -115 -152q0 -30 21.5 -49.5t52.5 -19.5q29 0 65 22l66 -143q-81 -47 -176 -47z" />
    <glyph glyph-name="iogonek" unicode="&#x12f;" horiz-adv-x="477" 
d="M131 971h215v-971h-215v971zM121 1137v235h235v-235h-235zM260 -389q-84 0 -135 48.5t-51 123.5q0 133 141 217h131q-115 -77 -115 -152q0 -30 21.5 -49.5t52.5 -19.5q30 0 66 22l65 -143q-81 -47 -176 -47z" />
    <glyph glyph-name="Idot" unicode="&#x130;" horiz-adv-x="520" 
d="M147 0v1434h226v-1434h-226zM141 1851h236v-235h-236v235z" />
    <glyph glyph-name="dotlessi" unicode="&#x131;" horiz-adv-x="477" 
d="M131 971h215v-971h-215v971z" />
    <glyph glyph-name="IJ" unicode="&#x132;" horiz-adv-x="1753" 
d="M147 0v1434h226v-1434h-226zM1397 1434h225v-953q0 -210 -119 -356q-118 -145 -383 -145q-235 0 -368.5 137.5t-133.5 353.5q0 137 62 246l215 -82q-51 -74 -51 -184q0 -112 79 -184t197 -72q136 0 206.5 83.5t70.5 229.5v926z" />
    <glyph glyph-name="ij" unicode="&#x133;" horiz-adv-x="954" 
d="M131 971h215v-971h-215v971zM121 1137v235h235v-235h-235zM608 -406v1377h215v-1377h-215zM598 1137v235h236v-235h-236z" />
    <glyph glyph-name="Jcircumflex" unicode="&#x134;" horiz-adv-x="1232" 
d="M877 1434h225v-953q0 -210 -119 -356q-118 -145 -383 -145q-235 0 -368.5 137.5t-133.5 353.5q0 137 62 246l215 -82q-51 -74 -51 -184q0 -112 79 -184t197 -72q136 0 206.5 83.5t70.5 229.5v926zM664 1599v33l256 221h139l256 -221v-33h-223l-103 132l-102 -132h-223z
" />
    <glyph glyph-name="jcircumflex" unicode="&#x135;" horiz-adv-x="477" 
d="M131 -406v1377h215v-1377h-215zM-86 1137v32l256 222h139l256 -222v-32h-223l-102 131l-103 -131h-223z" />
    <glyph glyph-name="Kcommaaccent" unicode="&#x136;" horiz-adv-x="1406" 
d="M807 872l559 -872h-276l-443 702l-274 -292v-410h-226v1434h226v-711l665 711h297zM547 -543l26 123q47 -18 89 -18q31 0 50 16t19 45q0 30 -18.5 46t-50.5 16h-54v209h242v-267q0 -95 -51.5 -141.5t-134.5 -46.5q-62 0 -117 18z" />
    <glyph glyph-name="kcommaaccent" unicode="&#x137;" horiz-adv-x="1056" 
d="M614 573l398 -573h-256l-289 418l-121 -127v-291h-215v1434h215v-871l369 408h276zM354 -543l27 123q47 -18 88 -18q31 0 50.5 16t19.5 45q0 30 -19 46t-51 16h-53v209h241v-267q0 -95 -51.5 -141.5t-134.5 -46.5q-61 0 -117 18z" />
    <glyph glyph-name="kgreenlandic" unicode="&#x138;" horiz-adv-x="995" 
d="M131 0v971h215v-357l307 357h277l-420 -459l440 -512h-276l-328 399v-399h-215z" />
    <glyph glyph-name="Lacute" unicode="&#x139;" horiz-adv-x="1314" 
d="M147 1434h226v-1219h860v-215h-1086v1434zM158 1599l176 273h276v-33l-248 -240h-204z" />
    <glyph glyph-name="lacute" unicode="&#x13a;" horiz-adv-x="477" 
d="M131 0v1434h215v-1434h-215zM137 1599l176 273h277v-33l-248 -240h-205z" />
    <glyph glyph-name="Lcommaaccent" unicode="&#x13b;" horiz-adv-x="1314" 
d="M147 1434h226v-1219h860v-215h-1086v1434zM487 -543l27 123q46 -18 88 -18q31 0 50.5 16t19.5 45q0 30 -19 46t-51 16h-53v209h242v-267q0 -95 -52 -141.5t-135 -46.5q-62 0 -117 18z" />
    <glyph glyph-name="lcommaaccent" unicode="&#x13c;" horiz-adv-x="477" 
d="M131 0v1434h215v-1434h-215zM53 -543l27 123q47 -18 88 -18q31 0 50.5 16t19.5 45q0 30 -19 46t-51 16h-53v209h241v-267q0 -95 -51.5 -141.5t-134.5 -46.5q-62 0 -117 18z" />
    <glyph glyph-name="Lcaron" unicode="&#x13d;" horiz-adv-x="1314" 
d="M147 1434h226v-1219h860v-215h-1086v1434zM973 971v123h47q90 0 90 61q0 30 -19 46t-51 16h-53v217h246v-269q0 -101 -60 -147.5t-165 -46.5h-35z" />
    <glyph glyph-name="lcaron" unicode="&#x13e;" horiz-adv-x="714" 
d="M131 0v1434h215v-1434h-215zM455 971v123h47q90 0 90 61q0 30 -19 46t-51 16h-53v217h246v-269q0 -101 -60.5 -147.5t-165.5 -46.5h-34z" />
    <glyph glyph-name="Ldot" unicode="&#x13f;" horiz-adv-x="1228" 
d="M147 1434h226v-1219h860v-215h-1086v1434zM782 840h246v-246h-246v246z" />
    <glyph glyph-name="ldot" unicode="&#x140;" horiz-adv-x="849" 
d="M131 0v1434h215v-1434h-215zM541 840h245v-246h-245v246z" />
    <glyph glyph-name="Lslash" unicode="&#x141;" horiz-adv-x="1314" 
d="M147 1434h226v-1219h860v-215h-1086v1434zM35 504l-84 166l620 321l84 -166z" />
    <glyph glyph-name="lslash" unicode="&#x142;" horiz-adv-x="477" 
d="M131 0v1434h215v-1434h-215zM23 516l-84 166l518 268l84 -166z" />
    <glyph glyph-name="Nacute" unicode="&#x143;" horiz-adv-x="1579" 
d="M373 1270v-1270h-226v1434h392l667 -1272v1272h226v-1434h-392zM688 1599l176 273h277v-33l-248 -240h-205z" />
    <glyph glyph-name="nacute" unicode="&#x144;" horiz-adv-x="1122" 
d="M346 0h-215v971h215v-142q97 162 305 162q154 0 247 -96t93 -260v-635h-215v561q0 116 -54 181t-147 65q-100 0 -164.5 -72t-64.5 -194v-541zM483 1137l176 272h277v-33l-248 -239h-205z" />
    <glyph glyph-name="Ncommaaccent" unicode="&#x145;" horiz-adv-x="1579" 
d="M373 1270v-1270h-226v1434h392l667 -1272v1272h226v-1434h-392zM606 -543l27 123q46 -18 88 -18q31 0 50.5 16t19.5 45q0 30 -19 46t-51 16h-53v209h241v-267q0 -95 -51.5 -141.5t-134.5 -46.5q-61 0 -117 18z" />
    <glyph glyph-name="ncommaaccent" unicode="&#x146;" horiz-adv-x="1122" 
d="M346 0h-215v971h215v-142q97 162 305 162q154 0 247 -96t93 -260v-635h-215v561q0 116 -54 181t-147 65q-100 0 -164.5 -72t-64.5 -194v-541zM375 -543l26 123q47 -18 88 -18q31 0 50.5 16t19.5 45q0 30 -19 46t-51 16h-53v209h242v-267q0 -95 -51.5 -141.5t-134.5 -46.5
q-62 0 -117 18z" />
    <glyph glyph-name="Ncaron" unicode="&#x147;" horiz-adv-x="1579" 
d="M373 1270v-1270h-226v1434h392l667 -1272v1272h226v-1434h-392zM721 1599l-256 222v32h223l103 -131l102 131h223v-32l-256 -222h-139z" />
    <glyph glyph-name="ncaron" unicode="&#x148;" horiz-adv-x="1122" 
d="M346 0h-215v971h215v-142q97 162 305 162q154 0 247 -96t93 -260v-635h-215v561q0 116 -54 181t-147 65q-100 0 -164.5 -72t-64.5 -194v-541zM516 1137l-256 221v33h223l103 -131l102 131h223v-33l-256 -221h-139z" />
    <glyph glyph-name="Eng" unicode="&#x14a;" horiz-adv-x="1579" 
d="M567 -113l205 82q23 -92 83.5 -141t152.5 -49q198 0 198 221h-166l-667 1270v-1270h-226v1434h392l667 -1272v1272h226v-1383q0 -229 -106 -353t-308 -124q-176 0 -294.5 82.5t-156.5 230.5z" />
    <glyph glyph-name="eng" unicode="&#x14b;" horiz-adv-x="1122" 
d="M426 -205l188 62q4 -41 27.5 -64.5t58.5 -23.5q37 0 56.5 24t19.5 68v700q0 116 -55 181t-148 65q-100 0 -163.5 -71.5t-63.5 -192.5v-543h-215v971h215v-142q97 162 305 162q154 0 247 -96t93 -260v-754q0 -146 -72 -226.5t-221 -80.5q-106 0 -183 60.5t-89 160.5z" />
    <glyph glyph-name="Omacron" unicode="&#x14c;" horiz-adv-x="1667" 
d="M834 1454q151 3 290.5 -56t240.5 -159t160 -237t56 -285q3 -148 -56 -285.5t-160 -237.5t-240.5 -158.5t-290.5 -55.5q-151 -3 -290.5 55.5t-240.5 158.5t-160.5 237.5t-56.5 285.5q-3 147 56.5 284.5t160.5 237.5t240.5 159t290.5 56zM834 195q141 0 257.5 65.5
t185.5 185.5t69 271q0 229 -146.5 375.5t-365.5 146.5t-365.5 -148t-146.5 -376q0 -229 148 -374.5t364 -145.5zM567 1802h533v-160h-533v160z" />
    <glyph glyph-name="omacron" unicode="&#x14d;" horiz-adv-x="1146" 
d="M74 485q0 217 140.5 361.5t358.5 144.5t359 -144.5t141 -361.5t-141 -361t-359 -144t-358.5 144t-140.5 361zM858 485q0 136 -81 224t-204 88t-203.5 -88t-80.5 -224t80.5 -223.5t203.5 -87.5t204 87.5t81 223.5zM307 1339h533v-159h-533v159z" />
    <glyph glyph-name="Obreve" unicode="&#x14e;" horiz-adv-x="1667" 
d="M834 1454q151 3 290.5 -56t240.5 -159t160 -237t56 -285q3 -148 -56 -285.5t-160 -237.5t-240.5 -158.5t-290.5 -55.5q-151 -3 -290.5 55.5t-240.5 158.5t-160.5 237.5t-56.5 285.5q-3 147 56.5 284.5t160.5 237.5t240.5 159t290.5 56zM834 195q141 0 257.5 65.5
t185.5 185.5t69 271q0 229 -146.5 375.5t-365.5 146.5t-365.5 -148t-146.5 -376q0 -229 148 -374.5t364 -145.5zM1090 1823q0 -107 -71 -167.5t-185 -60.5t-185 60.5t-71 167.5q0 22 2 28h155l-2 -20q0 -39 28.5 -65.5t72.5 -26.5t72 26.5t28 65.5l-2 20h155q3 -9 3 -28z
" />
    <glyph glyph-name="obreve" unicode="&#x14f;" horiz-adv-x="1146" 
d="M74 485q0 217 140.5 361.5t358.5 144.5t359 -144.5t141 -361.5t-141 -361t-359 -144t-358.5 144t-140.5 361zM858 485q0 136 -81 224t-204 88t-203.5 -88t-80.5 -224t80.5 -223.5t203.5 -87.5t204 87.5t81 223.5zM829 1360q0 -107 -71 -167t-185 -60t-185 60t-71 167
q0 23 2 29h156l-2 -21q0 -39 28 -65.5t72 -26.5t72.5 26.5t28.5 65.5l-2 21h155q2 -6 2 -29z" />
    <glyph glyph-name="Ohungarumlaut" unicode="&#x150;" horiz-adv-x="1667" 
d="M834 1454q151 3 290.5 -56t240.5 -159t160 -237t56 -285q3 -148 -56 -285.5t-160 -237.5t-240.5 -158.5t-290.5 -55.5q-151 -3 -290.5 55.5t-240.5 158.5t-160.5 237.5t-56.5 285.5q-3 147 56.5 284.5t160.5 237.5t240.5 159t290.5 56zM834 195q141 0 257.5 65.5
t185.5 185.5t69 271q0 229 -146.5 375.5t-365.5 146.5t-365.5 -148t-146.5 -376q0 -229 148 -374.5t364 -145.5zM535 1599l176 273h276v-33l-248 -240h-204zM930 1599l176 273h276v-33l-247 -240h-205z" />
    <glyph glyph-name="ohungarumlaut" unicode="&#x151;" horiz-adv-x="1146" 
d="M74 485q0 217 140.5 361.5t358.5 144.5t359 -144.5t141 -361.5t-141 -361t-359 -144t-358.5 144t-140.5 361zM858 485q0 136 -81 224t-204 88t-203.5 -88t-80.5 -224t80.5 -223.5t203.5 -87.5t204 87.5t81 223.5zM274 1137l177 272h276v-33l-248 -239h-205zM670 1137
l176 272h276v-33l-248 -239h-204z" />
    <glyph glyph-name="OE" unicode="&#x152;" horiz-adv-x="2512" 
d="M86 717q-3 147 56.5 284.5t160.5 237.5t240.5 159t290.5 56q324 0 512 -225v205h1044v-215h-819v-369h758v-215h-758v-420h839v-215h-1064v205q-188 -225 -512 -225q-151 -3 -290.5 55.5t-240.5 158.5t-160.5 237.5t-56.5 285.5zM1346 717q0 229 -146.5 375.5
t-365.5 146.5t-365.5 -148t-146.5 -376q0 -229 148 -374.5t364 -145.5q143 0 259.5 65.5t184.5 185.5t68 271z" />
    <glyph glyph-name="oe" unicode="&#x153;" horiz-adv-x="1871" 
d="M74 485q0 217 140.5 361.5t358.5 144.5q252 0 390 -203q64 98 158.5 150.5t211.5 52.5q193 0 314.5 -116.5t121.5 -311.5q0 -50 -10 -112h-686q0 -70 25 -127t67 -92t93.5 -53.5t107.5 -18.5q103 0 170 54t90 155l184 -72q-52 -154 -164 -235.5t-282 -81.5
q-268 0 -397 194q-137 -194 -394 -194q-218 0 -358.5 144t-140.5 361zM1073 594h481l2 18q0 89 -63.5 142t-163.5 53q-101 0 -172 -58t-84 -155zM858 485q0 136 -81 224t-204 88t-203.5 -88t-80.5 -224t80.5 -223.5t203.5 -87.5t204 87.5t81 223.5z" />
    <glyph glyph-name="Racute" unicode="&#x154;" horiz-adv-x="1394" 
d="M1305 0h-277q-26 51 -39 119q-12 68 -12 209q0 144 -63 205t-193 61h-348v-594h-226v1434h687q211 0 335.5 -110.5t124.5 -279.5q0 -135 -75 -232.5t-211 -145.5q107 -42 163 -124t62 -216q5 -115 16 -187q12 -59 56 -106v-33zM373 809h440q117 0 181.5 53.5t64.5 151.5
t-64.5 151.5t-181.5 53.5h-440v-410zM522 1599l176 273h277v-33l-248 -240h-205z" />
    <glyph glyph-name="racute" unicode="&#x155;" horiz-adv-x="931" 
d="M131 971h215v-142q29 78 89.5 120t146.5 42q120 0 200 -80q80 -77 80 -194q0 -68 -14 -123h-213q8 36 8 82q0 57 -40.5 94t-102.5 37q-70 0 -112 -44t-42 -118v-645h-215v971zM426 1137l176 272h277v-33l-248 -239h-205z" />
    <glyph glyph-name="Rcommaaccent" unicode="&#x156;" horiz-adv-x="1394" 
d="M1305 0h-277q-26 51 -39 119q-12 68 -12 209q0 144 -63 205t-193 61h-348v-594h-226v1434h687q211 0 335.5 -110.5t124.5 -279.5q0 -135 -75 -232.5t-211 -145.5q107 -42 163 -124t62 -216q5 -115 16 -187q12 -59 56 -106v-33zM373 809h440q117 0 181.5 53.5t64.5 151.5
t-64.5 151.5t-181.5 53.5h-440v-410zM522 -543l27 123q47 -18 88 -18q31 0 50.5 16t19.5 45q0 30 -19 46t-51 16h-53v209h241v-267q0 -95 -51.5 -141.5t-134.5 -46.5q-61 0 -117 18z" />
    <glyph glyph-name="rcommaaccent" unicode="&#x157;" horiz-adv-x="931" 
d="M131 971h215v-142q29 78 89.5 120t146.5 42q120 0 200 -80q80 -77 80 -194q0 -68 -14 -123h-213q8 36 8 82q0 57 -40.5 94t-102.5 37q-70 0 -112 -44t-42 -118v-645h-215v971zM53 -543l27 123q47 -18 88 -18q31 0 50.5 16t19.5 45q0 30 -19 46t-51 16h-53v209h241v-267
q0 -95 -51.5 -141.5t-134.5 -46.5q-62 0 -117 18z" />
    <glyph glyph-name="Rcaron" unicode="&#x158;" horiz-adv-x="1394" 
d="M1305 0h-277q-26 51 -39 119q-12 68 -12 209q0 144 -63 205t-193 61h-348v-594h-226v1434h687q211 0 335.5 -110.5t124.5 -279.5q0 -135 -75 -232.5t-211 -145.5q107 -42 163 -124t62 -216q5 -115 16 -187q12 -59 56 -106v-33zM373 809h440q117 0 181.5 53.5t64.5 151.5
t-64.5 151.5t-181.5 53.5h-440v-410zM555 1599l-256 222v32h223l103 -131l102 131h223v-32l-256 -222h-139z" />
    <glyph glyph-name="rcaron" unicode="&#x159;" horiz-adv-x="931" 
d="M131 971h215v-142q29 78 89.5 120t146.5 42q120 0 200 -80q80 -77 80 -194q0 -68 -14 -123h-213q8 36 8 82q0 57 -40.5 94t-102.5 37q-70 0 -112 -44t-42 -118v-645h-215v971zM459 1137l-256 221v33h223l102 -131l103 131h223v-33l-256 -221h-139z" />
    <glyph glyph-name="Sacute" unicode="&#x15a;" horiz-adv-x="1314" 
d="M643 1239q-115 0 -185.5 -49.5t-70.5 -124.5q0 -63 47.5 -110t124.5 -75t195 -51q251 -48 372 -148.5t121 -270.5q0 -186 -156 -308t-403 -122q-205 0 -385 98q-178 102 -254 342l215 133q38 -173 149 -265.5t277 -92.5q146 0 234 56.5t88 147.5q0 88 -78.5 142
t-259.5 84q-255 44 -383.5 149t-128.5 289q0 162 141.5 276.5t360.5 114.5q182 0 322.5 -92t199.5 -256l-215 -123q-30 124 -113 190t-215 66zM555 1599l176 273h277v-33l-248 -240h-205z" />
    <glyph glyph-name="sacute" unicode="&#x15b;" horiz-adv-x="968" 
d="M59 246l174 92q38 -90 104 -132t167 -42q85 0 133.5 31t48.5 81q0 67 -50 100t-190 56q-333 54 -333 285q0 119 105.5 196.5t256.5 77.5q136 0 221.5 -53.5t134.5 -157.5l-163 -90q-44 129 -191 129q-72 0 -121 -31t-49 -75q0 -55 52 -80.5t194 -46.5q177 -26 257.5 -99
t80.5 -200q0 -134 -113.5 -220.5t-281.5 -86.5q-164 0 -275 70t-162 196zM375 1137l176 272h276v-33l-247 -239h-205z" />
    <glyph glyph-name="Scircumflex" unicode="&#x15c;" horiz-adv-x="1314" 
d="M643 1239q-115 0 -185.5 -49.5t-70.5 -124.5q0 -63 47.5 -110t124.5 -75t195 -51q251 -48 372 -148.5t121 -270.5q0 -186 -156 -308t-403 -122q-205 0 -385 98q-178 102 -254 342l215 133q38 -173 149 -265.5t277 -92.5q146 0 234 56.5t88 147.5q0 88 -78.5 142
t-259.5 84q-255 44 -383.5 149t-128.5 289q0 162 141.5 276.5t360.5 114.5q182 0 322.5 -92t199.5 -256l-215 -123q-30 124 -113 190t-215 66zM332 1599v33l256 221h139l256 -221v-33h-223l-103 132l-102 -132h-223z" />
    <glyph glyph-name="scircumflex" unicode="&#x15d;" horiz-adv-x="968" 
d="M59 246l174 92q38 -90 104 -132t167 -42q85 0 133.5 31t48.5 81q0 67 -50 100t-190 56q-333 54 -333 285q0 119 105.5 196.5t256.5 77.5q136 0 221.5 -53.5t134.5 -157.5l-163 -90q-44 129 -191 129q-72 0 -121 -31t-49 -75q0 -55 52 -80.5t194 -46.5q177 -26 257.5 -99
t80.5 -200q0 -134 -113.5 -220.5t-281.5 -86.5q-164 0 -275 70t-162 196zM152 1137v32l256 222h139l256 -222v-32h-223l-103 131l-102 -131h-223z" />
    <glyph glyph-name="Scedilla" unicode="&#x15e;" horiz-adv-x="1314" 
d="M643 1239q-115 0 -185.5 -49.5t-70.5 -124.5q0 -63 47.5 -110t124.5 -75t195 -51q251 -48 372 -148.5t121 -270.5q0 -186 -156 -308t-403 -122q-205 0 -385 98q-178 102 -254 342l215 133q38 -173 149 -265.5t277 -92.5q146 0 234 56.5t88 147.5q0 88 -78.5 142
t-259.5 84q-255 44 -383.5 149t-128.5 289q0 162 141.5 276.5t360.5 114.5q182 0 322.5 -92t199.5 -256l-215 -123q-30 124 -113 190t-215 66zM690 -104q40 43 98 43q70 0 115 -43t45 -115q0 -77 -47.5 -121.5t-126.5 -44.5q-74 0 -123 34.5t-61 100.5l108 27
q5 -27 24 -43.5t48 -16.5q32 0 51 17.5t19 46.5t-19 47t-51 18q-48 0 -70 -36l-106 20q18 65 41 203h115q-28 -83 -60 -137z" />
    <glyph glyph-name="scedilla" unicode="&#x15f;" horiz-adv-x="968" 
d="M59 246l174 92q38 -90 104 -132t167 -42q85 0 133.5 31t48.5 81q0 67 -50 100t-190 56q-333 54 -333 285q0 119 105.5 196.5t256.5 77.5q136 0 221.5 -53.5t134.5 -157.5l-163 -90q-44 129 -191 129q-72 0 -121 -31t-49 -75q0 -55 52 -80.5t194 -46.5q177 -26 257.5 -99
t80.5 -200q0 -134 -113.5 -220.5t-281.5 -86.5q-164 0 -275 70t-162 196zM442 -104q40 43 99 43q70 0 114.5 -43t44.5 -115q0 -77 -47.5 -121.5t-126.5 -44.5q-74 0 -123 34.5t-61 100.5l109 27q5 -27 23.5 -43.5t47.5 -16.5q32 0 51 17.5t19 46.5t-19 47t-51 18
q-47 0 -69 -36l-107 20q18 65 41 203h115q-28 -83 -60 -137z" />
    <glyph glyph-name="Scaron" unicode="&#x160;" horiz-adv-x="1314" 
d="M643 1239q-115 0 -185.5 -49.5t-70.5 -124.5q0 -63 47.5 -110t124.5 -75t195 -51q251 -48 372 -148.5t121 -270.5q0 -186 -156 -308t-403 -122q-205 0 -385 98q-178 102 -254 342l215 133q38 -173 149 -265.5t277 -92.5q146 0 234 56.5t88 147.5q0 88 -78.5 142
t-259.5 84q-255 44 -383.5 149t-128.5 289q0 162 141.5 276.5t360.5 114.5q182 0 322.5 -92t199.5 -256l-215 -123q-30 124 -113 190t-215 66zM588 1599l-256 222v32h223l102 -131l103 131h223v-32l-256 -222h-139z" />
    <glyph glyph-name="scaron" unicode="&#x161;" horiz-adv-x="968" 
d="M59 246l174 92q38 -90 104 -132t167 -42q85 0 133.5 31t48.5 81q0 67 -50 100t-190 56q-333 54 -333 285q0 119 105.5 196.5t256.5 77.5q136 0 221.5 -53.5t134.5 -157.5l-163 -90q-44 129 -191 129q-72 0 -121 -31t-49 -75q0 -55 52 -80.5t194 -46.5q177 -26 257.5 -99
t80.5 -200q0 -134 -113.5 -220.5t-281.5 -86.5q-164 0 -275 70t-162 196zM408 1137l-256 221v33h223l102 -131l103 131h223v-33l-256 -221h-139z" />
    <glyph glyph-name="uni0162" unicode="&#x162;" horiz-adv-x="1384" 
d="M1327 1434v-215h-522v-1219h-225v1219h-523v215h1270zM698 -104q40 43 99 43q70 0 114.5 -43t44.5 -115q0 -77 -47.5 -121.5t-126.5 -44.5q-74 0 -123 34.5t-61 100.5l109 27q5 -27 23.5 -43.5t47.5 -16.5q32 0 51 17.5t19 46.5t-19 47t-51 18q-47 0 -69 -36l-107 20
q18 65 41 203h115q-28 -83 -60 -137z" />
    <glyph glyph-name="uni0163" unicode="&#x163;" horiz-adv-x="964" 
d="M236 307v479h-195v185h195v309h215v-309h368v-185h-368v-489q0 -64 34.5 -98.5t87.5 -34.5q62 0 95 40t39 124l204 -41q-13 -146 -100 -226.5t-227 -80.5q-169 0 -258.5 86t-89.5 241zM516 -104q40 43 98 43q70 0 115 -43t45 -115q0 -77 -47.5 -121.5t-126.5 -44.5
q-74 0 -123 34.5t-61 100.5l108 27q5 -27 24 -43.5t48 -16.5q32 0 51 17.5t19 46.5t-19 47t-51 18q-48 0 -70 -36l-106 20q18 65 41 203h114q-30 -87 -59 -137z" />
    <glyph glyph-name="Tcaron" unicode="&#x164;" horiz-adv-x="1384" 
d="M1327 1434v-215h-522v-1219h-225v1219h-523v215h1270zM623 1599l-256 222v32h223l102 -131l103 131h223v-32l-256 -222h-139z" />
    <glyph glyph-name="tcaron" unicode="&#x165;" horiz-adv-x="964" 
d="M236 307v479h-195v185h195v309h215v-309h368v-185h-368v-489q0 -64 34.5 -98.5t87.5 -34.5q62 0 95 40t39 124l204 -41q-13 -146 -100 -226.5t-227 -80.5q-169 0 -258.5 86t-89.5 241zM549 1069v123h47q90 0 90 61q0 30 -19 46t-51 16h-53v217h246v-268
q0 -101 -60.5 -148t-164.5 -47h-35z" />
    <glyph glyph-name="Tbar" unicode="&#x166;" horiz-adv-x="1384" 
d="M1327 1434v-215h-522v-1219h-225v1219h-523v215h1270zM289 809h807v-184h-807v184z" />
    <glyph glyph-name="tbar" unicode="&#x167;" horiz-adv-x="964" 
d="M236 307v479h-195v185h195v309h215v-309h368v-185h-368v-489q0 -64 34.5 -98.5t87.5 -34.5q62 0 95 40t39 124l204 -41q-13 -146 -100 -226.5t-227 -80.5q-169 0 -258.5 86t-89.5 241zM74 627h643v-174h-643v174z" />
    <glyph glyph-name="Utilde" unicode="&#x168;" horiz-adv-x="1458" 
d="M131 1434h225v-848q0 -183 102 -287t271 -104t271 104t102 287v848h225v-861q0 -266 -163 -429.5t-435 -163.5t-435 163.5t-163 429.5v861zM694 1663q-26 22 -41 30.5t-37 8.5q-27 0 -45 -18.5t-18 -49.5q0 -2 4 -30l-149 20q-5 25 -5 31q0 85 56.5 140.5t142.5 55.5
q56 0 91 -15.5t71 -49.5q26 -22 41 -30.5t37 -8.5q27 0 45 18.5t18 49.5q0 2 -4 30l150 -20q4 -20 4 -31q0 -85 -56.5 -141t-142.5 -56q-56 0 -91 16t-71 50z" />
    <glyph glyph-name="utilde" unicode="&#x169;" horiz-adv-x="1132" 
d="M786 971h215v-971h-215v154q-104 -174 -301 -174q-164 0 -259 94t-95 274v623h215v-572q0 -114 51 -174.5t144 -60.5q110 0 177.5 81t67.5 216v510zM532 1200q-26 23 -40.5 31t-36.5 8q-27 0 -45.5 -18.5t-18.5 -49.5q0 -2 4 -30l-149 20q-4 20 -4 31q0 85 56 141t142 56
q56 0 91 -16t71 -50q26 -22 41 -30.5t37 -8.5q27 0 45 18.5t18 49.5q0 2 -4 30l150 -20q4 -20 4 -31q0 -85 -56.5 -140.5t-142.5 -55.5q-56 0 -91 15.5t-71 49.5z" />
    <glyph glyph-name="Umacron" unicode="&#x16a;" horiz-adv-x="1458" 
d="M131 1434h225v-848q0 -183 102 -287t271 -104t271 104t102 287v848h225v-861q0 -266 -163 -429.5t-435 -163.5t-435 163.5t-163 429.5v861zM463 1802h532v-160h-532v160z" />
    <glyph glyph-name="umacron" unicode="&#x16b;" horiz-adv-x="1132" 
d="M786 971h215v-971h-215v154q-104 -174 -301 -174q-164 0 -259 94t-95 274v623h215v-572q0 -114 51 -174.5t144 -60.5q110 0 177.5 81t67.5 216v510zM301 1339h533v-159h-533v159z" />
    <glyph glyph-name="Ubreve" unicode="&#x16c;" horiz-adv-x="1458" 
d="M131 1434h225v-848q0 -183 102 -287t271 -104t271 104t102 287v848h225v-861q0 -266 -163 -429.5t-435 -163.5t-435 163.5t-163 429.5v861zM985 1823q0 -107 -71 -167.5t-185 -60.5t-185 60.5t-71 167.5q0 22 2 28h156l-2 -20q0 -39 28 -65.5t72 -26.5t72 26.5t28 65.5
l-2 20h156q2 -6 2 -28z" />
    <glyph glyph-name="ubreve" unicode="&#x16d;" horiz-adv-x="1132" 
d="M786 971h215v-971h-215v154q-104 -174 -301 -174q-164 0 -259 94t-95 274v623h215v-572q0 -114 51 -174.5t144 -60.5q110 0 177.5 81t67.5 216v510zM823 1360q0 -107 -71 -167t-185 -60t-185 60t-71 167q0 23 2 29h156l-2 -21q0 -39 28 -65.5t72 -26.5t72.5 26.5
t28.5 65.5l-2 21h155q2 -6 2 -29z" />
    <glyph glyph-name="Uring" unicode="&#x16e;" horiz-adv-x="1458" 
d="M131 1434h225v-848q0 -183 102 -287t271 -104t271 104t102 287v848h225v-861q0 -266 -163 -429.5t-435 -163.5t-435 163.5t-163 429.5v861zM539 1747q0 79 55.5 134.5t134.5 55.5q80 0 135.5 -55.5t55.5 -134.5t-56 -135t-135 -56t-134.5 55.5t-55.5 135.5zM803 1747
q0 29 -22.5 51.5t-51.5 22.5t-51.5 -22.5t-22.5 -51.5t22.5 -51.5t51.5 -22.5t51.5 22.5t22.5 51.5z" />
    <glyph glyph-name="uring" unicode="&#x16f;" horiz-adv-x="1132" 
d="M786 971h215v-971h-215v154q-104 -174 -301 -174q-164 0 -259 94t-95 274v623h215v-572q0 -114 51 -174.5t144 -60.5q110 0 177.5 81t67.5 216v510zM377 1284q0 80 55.5 135.5t134.5 55.5t135 -55.5t56 -135.5q0 -79 -55.5 -134.5t-135.5 -55.5q-79 0 -134.5 55
t-55.5 135zM641 1284q0 29 -22.5 51.5t-51.5 22.5t-51 -22.5t-22 -51.5t22 -51.5t51 -22.5t51.5 22.5t22.5 51.5z" />
    <glyph glyph-name="Uhungarumlaut" unicode="&#x170;" horiz-adv-x="1458" 
d="M131 1434h225v-848q0 -183 102 -287t271 -104t271 104t102 287v848h225v-861q0 -266 -163 -429.5t-435 -163.5t-435 163.5t-163 429.5v861zM430 1599l176 273h277v-33l-248 -240h-205zM825 1599l176 273h277v-33l-248 -240h-205z" />
    <glyph glyph-name="uhungarumlaut" unicode="&#x171;" horiz-adv-x="1132" 
d="M786 971h215v-971h-215v154q-104 -174 -301 -174q-164 0 -259 94t-95 274v623h215v-572q0 -114 51 -174.5t144 -60.5q110 0 177.5 81t67.5 216v510zM268 1137l176 272h277v-33l-248 -239h-205zM664 1137l176 272h276v-33l-248 -239h-204z" />
    <glyph glyph-name="Uogonek" unicode="&#x172;" horiz-adv-x="1458" 
d="M131 1434h225v-848q0 -183 102 -287t271 -104t271 104t102 287v848h225v-861q0 -266 -163 -429.5t-435 -163.5t-435 163.5t-163 429.5v861zM770 -389q-84 0 -135 48.5t-51 123.5q0 133 141 217h131q-115 -77 -115 -152q0 -30 21.5 -49.5t52.5 -19.5q30 0 66 22l65 -143
q-81 -47 -176 -47z" />
    <glyph glyph-name="uogonek" unicode="&#x173;" horiz-adv-x="1132" 
d="M786 971h215v-971h-215v154q-104 -174 -301 -174q-164 0 -259 94t-95 274v623h215v-572q0 -114 51 -174.5t144 -60.5q110 0 177.5 81t67.5 216v510zM915 -389q-84 0 -135 48.5t-51 123.5q0 133 141 217h131q-114 -76 -114 -152q0 -30 21.5 -49.5t52.5 -19.5q29 0 65 22
l66 -143q-81 -47 -177 -47z" />
    <glyph glyph-name="Wcircumflex" unicode="&#x174;" horiz-adv-x="2056" 
d="M362 0l-337 1434h235l287 -1276l287 1276h389l286 -1276l287 1276h236l-338 -1434h-369l-297 1284l-297 -1284h-369zM702 1599v33l256 221h140l256 -221v-33h-224l-102 132l-102 -132h-224z" />
    <glyph glyph-name="wcircumflex" unicode="&#x175;" horiz-adv-x="1540" 
d="M248 971l205 -756l194 756h246l194 -756l205 756h215l-286 -971h-256l-195 682l-195 -682h-256l-286 971h215zM444 1137v32l256 222h140l256 -222v-32h-224l-102 131l-102 -131h-224z" />
    <glyph glyph-name="Ycircumflex" unicode="&#x176;" horiz-adv-x="1421" 
d="M301 1434l410 -652l430 652h256l-574 -850v-584h-225v584l-573 850h276zM385 1599v33l256 221h139l256 -221v-33h-223l-102 132l-103 -132h-223z" />
    <glyph glyph-name="ycircumflex" unicode="&#x177;" horiz-adv-x="1042" 
d="M793 971h225l-656 -1377h-225l260 549l-383 828h232l264 -594zM190 1137v32l256 222h140l256 -222v-32h-224l-102 131l-102 -131h-224z" />
    <glyph glyph-name="Ydieresis" unicode="&#x178;" horiz-adv-x="1421" 
d="M301 1434l410 -652l430 652h256l-574 -850v-584h-225v584l-573 850h276zM414 1616v229h225v-229h-225zM782 1616v229h226v-229h-226z" />
    <glyph glyph-name="Zacute" unicode="&#x179;" horiz-adv-x="1447" 
d="M102 215l932 1004h-921v215h1218v-215l-932 -1004h942v-215h-1239v215zM614 1599l177 273h276v-33l-248 -240h-205z" />
    <glyph glyph-name="zacute" unicode="&#x17a;" horiz-adv-x="1021" 
d="M932 0h-850v184l573 592h-563v195h830v-185l-574 -591h584v-195zM403 1137l177 272h276v-33l-248 -239h-205z" />
    <glyph glyph-name="Zdotaccent" unicode="&#x17b;" horiz-adv-x="1447" 
d="M102 215l932 1004h-921v215h1218v-215l-932 -1004h942v-215h-1239v215zM598 1851h236v-235h-236v235z" />
    <glyph glyph-name="zdotaccent" unicode="&#x17c;" horiz-adv-x="1021" 
d="M932 0h-850v184l573 592h-563v195h830v-185l-574 -591h584v-195zM387 1137v235h236v-235h-236z" />
    <glyph glyph-name="Zcaron" unicode="&#x17d;" horiz-adv-x="1447" 
d="M102 215l932 1004h-921v215h1218v-215l-932 -1004h942v-215h-1239v215zM647 1599l-256 222v32h223l103 -131l102 131h223v-32l-256 -222h-139z" />
    <glyph glyph-name="zcaron" unicode="&#x17e;" horiz-adv-x="1021" 
d="M932 0h-850v184l573 592h-563v195h830v-185l-574 -591h584v-195zM436 1137l-256 221v33h223l103 -131l102 131h223v-33l-256 -221h-139z" />
    <glyph glyph-name="florin" unicode="&#x192;" horiz-adv-x="989" 
d="M72 143l174 113q8 -32 30 -52t52 -20q39 0 60.5 24t21.5 68v500h-256v195h256v155q0 147 94.5 237.5t253.5 90.5q166 0 253 -84.5t87 -218.5q0 -37 -2 -47h-205q4 28 4 41q0 57 -36 91t-101 34q-62 0 -97.5 -39.5t-35.5 -110.5v-149h266v-195h-266v-510q0 -134 -73 -210
t-194 -76q-109 0 -178.5 39.5t-107.5 123.5z" />
    <glyph glyph-name="uni01B5" unicode="&#x1b5;" horiz-adv-x="1228" 
d="M399 215h942v-215h-1239v215l377 406h-315v194h495l375 404h-921v215h1218v-215l-375 -404h281v-194h-461z" />
    <glyph glyph-name="uni01B6" unicode="&#x1b6;" horiz-adv-x="1021" 
d="M82 0v184l213 219h-117v175h285l192 198h-563v195h830v-185l-203 -208h102v-175h-270l-203 -208h584v-195h-850z" />
    <glyph glyph-name="Aringacute" unicode="&#x1fa;" horiz-adv-x="1540" 
d="M25 0l589 1434h312l590 -1434h-254l-138 348h-708l-137 -348h-254zM496 553h548l-274 694zM580 1747q0 79 55 134.5t135 55.5t135.5 -55.5t55.5 -134.5t-55.5 -135t-135.5 -56q-79 0 -134.5 55.5t-55.5 135.5zM844 1747q0 29 -22.5 51.5t-51.5 22.5t-51.5 -22.5
t-22.5 -51.5t22.5 -51.5t51.5 -22.5t51.5 22.5t22.5 51.5zM668 1898l176 273h276v-33l-248 -240h-204z" />
    <glyph glyph-name="aringacute" unicode="&#x1fb;" horiz-adv-x="1073" 
d="M92 276q0 153 101.5 232.5t269.5 79.5q89 0 172 -21l102 -24v71q0 95 -63 149t-162 54q-95 0 -156.5 -51.5t-79.5 -140.5l-194 51q33 146 144 230.5t286 84.5q207 0 318.5 -101t111.5 -286v-604h-205v164q-33 -85 -116.5 -134.5t-208.5 -49.5q-127 0 -223.5 81.5
t-96.5 214.5zM737 369v10l-78 20q-105 27 -161 27q-84 0 -132.5 -32.5t-48.5 -96.5q0 -60 46 -96.5t135 -36.5q107 0 173 55t66 150zM322 1284q0 80 55.5 135.5t134.5 55.5t134.5 -55.5t55.5 -135.5t-55 -135t-135 -55t-135 55t-55 135zM586 1284q0 29 -22.5 51.5
t-51.5 22.5t-51.5 -22.5t-22.5 -51.5t22.5 -51.5t51.5 -22.5t51.5 22.5t22.5 51.5zM410 1415l176 273h276v-33l-248 -240h-204z" />
    <glyph glyph-name="AEacute" unicode="&#x1fc;" horiz-adv-x="1988" 
d="M1147 215h739v-215h-964v348h-459l-184 -348h-254l761 1434h1080v-215h-719v-369h657v-215h-657v-420zM922 553v666l-353 -666h353zM1217 1599l176 273h276v-33l-248 -240h-204z" />
    <glyph glyph-name="aeacute" unicode="&#x1fd;" horiz-adv-x="1746" 
d="M92 287q0 151 97.5 229t267.5 78h278v20q0 95 -64.5 149t-170.5 54q-98 0 -159 -47t-75 -129l-184 51q74 299 420 299q126 0 220 -42t144 -118q54 74 145 117t195 43q194 0 316.5 -116.5t122.5 -311.5q0 -44 -11 -112h-686q0 -138 86 -214.5t205 -76.5q104 0 171.5 54.5
t90.5 154.5l185 -72q-52 -154 -165.5 -235.5t-283.5 -81.5q-139 0 -245.5 60.5t-149.5 160.5q-135 -221 -414 -221q-147 0 -241.5 88.5t-94.5 218.5zM948 594h482l2 18q0 89 -64 142t-164 53q-101 0 -172 -58t-84 -155zM735 379v59h-229q-89 0 -142 -37.5t-53 -105.5
q0 -62 43 -96.5t121 -34.5q117 0 188.5 58.5t71.5 156.5zM764 1137l176 272h277v-33l-248 -239h-205z" />
    <glyph glyph-name="Scommaaccent" unicode="&#x218;" horiz-adv-x="1314" 
d="M643 1239q-115 0 -185.5 -49.5t-70.5 -124.5q0 -63 47.5 -110t124.5 -75t195 -51q251 -48 372 -148.5t121 -270.5q0 -186 -156 -308t-403 -122q-205 0 -385 98q-178 102 -254 342l215 133q38 -173 149 -265.5t277 -92.5q146 0 234 56.5t88 147.5q0 88 -78.5 142
t-259.5 84q-255 44 -383.5 149t-128.5 289q0 162 141.5 276.5t360.5 114.5q182 0 322.5 -92t199.5 -256l-215 -123q-30 124 -113 190t-215 66zM500 -543l26 123q46 -18 88 -18q31 0 50.5 16t19.5 45q0 30 -19 46t-51 16h-53v209h242v-267q0 -95 -52 -141.5t-135 -46.5
q-60 0 -116 18z" />
    <glyph glyph-name="scommaaccent" unicode="&#x219;" horiz-adv-x="968" 
d="M59 246l174 92q38 -90 104 -132t167 -42q85 0 133.5 31t48.5 81q0 67 -50 100t-190 56q-333 54 -333 285q0 119 105.5 196.5t256.5 77.5q136 0 221.5 -53.5t134.5 -157.5l-163 -90q-44 129 -191 129q-72 0 -121 -31t-49 -75q0 -55 52 -80.5t194 -46.5q177 -26 257.5 -99
t80.5 -200q0 -134 -113.5 -220.5t-281.5 -86.5q-164 0 -275 70t-162 196zM309 -543l27 123q46 -18 88 -18q31 0 50.5 16t19.5 45q0 30 -19 46t-51 16h-53v209h241v-267q0 -95 -51.5 -141.5t-134.5 -46.5q-62 0 -117 18z" />
    <glyph glyph-name="uni021A" unicode="&#x21a;" horiz-adv-x="1384" 
d="M1327 1434v-215h-522v-1219h-225v1219h-523v215h1270zM508 -543l27 123q47 -18 88 -18q31 0 50 16t19 45q0 30 -18.5 46t-50.5 16h-54v209h242v-267q0 -95 -51.5 -141.5t-134.5 -46.5q-61 0 -117 18z" />
    <glyph glyph-name="uni021B" unicode="&#x21b;" horiz-adv-x="964" 
d="M236 307v479h-195v185h195v309h215v-309h368v-185h-368v-489q0 -64 34.5 -98.5t87.5 -34.5q62 0 95 40t39 124l204 -41q-13 -146 -100 -226.5t-227 -80.5q-169 0 -258.5 86t-89.5 241zM389 -543l27 123q46 -18 88 -18q31 0 50 16t19 45q0 30 -18.5 46t-50.5 16h-53v209
h241v-267q0 -95 -51.5 -141.5t-134.5 -46.5q-62 0 -117 18z" />
    <glyph glyph-name="uni0237" unicode="&#x237;" horiz-adv-x="477" 
d="M131 -406v1377h215v-1377h-215z" />
    <glyph glyph-name="circumflex" unicode="&#x2c6;" horiz-adv-x="860" 
d="M104 1137v32l256 222h140l256 -222v-32h-224l-102 131l-102 -131h-224z" />
    <glyph glyph-name="caron" unicode="&#x2c7;" horiz-adv-x="860" 
d="M360 1137l-256 221v33h224l102 -131l102 131h224v-33l-256 -221h-140z" />
    <glyph glyph-name="uni02C9" unicode="&#x2c9;" horiz-adv-x="778" 
d="M123 1339h532v-159h-532v159z" />
    <glyph glyph-name="breve" unicode="&#x2d8;" horiz-adv-x="733" 
d="M623 1360q0 -107 -71 -167t-185 -60t-185 60t-71 167q0 23 2 29h155l-2 -21q0 -39 28.5 -65.5t72.5 -26.5t72 26.5t28 65.5l-2 21h156q2 -6 2 -29z" />
    <glyph glyph-name="dotaccent" unicode="&#x2d9;" horiz-adv-x="460" 
d="M113 1137v235h235v-235h-235z" />
    <glyph glyph-name="ring" unicode="&#x2da;" horiz-adv-x="583" 
d="M291 1454q72 0 121 -49t49 -121q0 -69 -50.5 -118.5t-119.5 -49.5t-118.5 49.5t-49.5 118.5t49.5 119.5t118.5 50.5zM291 1229q25 0 41 16t16 39q0 25 -16 41t-41 16q-23 0 -39 -16t-16 -41q0 -23 16 -39t39 -16z" />
    <glyph glyph-name="ogonek" unicode="&#x2db;" horiz-adv-x="649" 
d="M326 -348q-81 0 -134 46.5t-53 115.5q0 126 142 217h125q-105 -73 -105 -144q0 -69 70 -69q27 0 63 22l66 -141q-50 -27 -87 -37t-87 -10z" />
    <glyph glyph-name="tilde" unicode="&#x2dc;" horiz-adv-x="864" 
d="M395 1200q-24 24 -39 32.5t-37 8.5q-30 0 -48.5 -19.5t-18.5 -54.5q0 -10 4 -30l-147 20l-3 27q0 91 60 146.5t145 55.5q53 0 85.5 -15.5t66.5 -49.5q25 -25 40.5 -34t39.5 -9q30 0 48.5 20.5t18.5 53.5q0 2 -4 30l150 -20l2 -27q0 -86 -57.5 -144t-143.5 -58
q-59 0 -92.5 15.5t-69.5 51.5z" />
    <glyph glyph-name="hungarumlaut" unicode="&#x2dd;" horiz-adv-x="1030" 
d="M92 1137l176 272h277v-33l-248 -239h-205zM487 1137l177 272h276v-33l-248 -239h-205z" />
    <glyph glyph-name="gravecomb" unicode="&#x300;" 
d="M-328 1137l-247 239v33h276l176 -272h-205z" />
    <glyph glyph-name="acutecomb" unicode="&#x301;" 
d="M-575 1137l176 272h276v-33l-248 -239h-204z" />
    <glyph glyph-name="uni0302" unicode="&#x302;" 
d="M-756 1137v32l256 222h140l256 -222v-32h-224l-102 131l-102 -131h-224z" />
    <glyph glyph-name="tildecomb" unicode="&#x303;" 
d="M-467 1200q-26 22 -41 30.5t-37 8.5q-27 0 -45 -18.5t-18 -49.5q0 -2 4 -30l-150 20q-4 20 -4 31q0 85 56.5 141t142.5 56q56 0 91 -16t71 -50q26 -22 41 -30.5t37 -8.5q27 0 45 18.5t18 49.5q0 2 -4 30l149 -20q5 -25 5 -31q0 -85 -56.5 -140.5t-142.5 -55.5
q-56 0 -91 15.5t-71 49.5z" />
    <glyph glyph-name="uni0304" unicode="&#x304;" 
d="M-655 1339h532v-159h-532v159z" />
    <glyph glyph-name="uni0306" unicode="&#x306;" 
d="M-111 1360q0 -107 -71 -167t-185 -60t-185 60t-71 167q0 23 2 29h156l-2 -21q0 -39 28 -65.5t72 -26.5t72.5 26.5t28.5 65.5l-2 21h155q2 -6 2 -29z" />
    <glyph glyph-name="uni0307" unicode="&#x307;" 
d="M-348 1137v235h235v-235h-235z" />
    <glyph glyph-name="uni0308" unicode="&#x308;" 
d="M-676 1153v229h225v-229h-225zM-307 1153v229h225v-229h-225z" />
    <glyph glyph-name="uni030A" unicode="&#x30a;" 
d="M-483 1284q0 80 55.5 135.5t134.5 55.5t135 -55.5t56 -135.5q0 -79 -55.5 -134.5t-135.5 -55.5q-79 0 -134.5 55t-55.5 135zM-219 1284q0 29 -22.5 51.5t-51.5 22.5t-51.5 -22.5t-22.5 -51.5t22.5 -51.5t51.5 -22.5t51.5 22.5t22.5 51.5z" />
    <glyph glyph-name="uni030B" unicode="&#x30b;" 
d="M-940 1137l176 272h277v-33l-248 -239h-205zM-545 1137l176 272h277v-33l-248 -239h-205z" />
    <glyph glyph-name="uni030C" unicode="&#x30c;" 
d="M-500 1137l-256 221v33h224l102 -131l102 131h224v-33l-256 -221h-140z" />
    <glyph glyph-name="uni0312" unicode="&#x312;" 
d="M-152 1110h-245v307q0 185 225 185h61v-123h-73q-90 0 -90 -62q0 -61 69 -61h53v-246z" />
    <glyph glyph-name="uni0326" unicode="&#x326;" 
d="M-426 -543l27 123q46 -18 88 -18q31 0 50 16t19 45q0 30 -18.5 46t-50.5 16h-54v209h242v-267q0 -95 -51.5 -141.5t-134.5 -46.5q-61 0 -117 18z" />
    <glyph glyph-name="uni0327" unicode="&#x327;" 
d="M-362 -104q40 43 98 43q70 0 115 -43t45 -115q0 -77 -48 -121.5t-127 -44.5q-74 0 -123 34.5t-61 100.5l109 27q5 -27 23.5 -43.5t47.5 -16.5q32 0 51 17.5t19 46.5t-19 47t-51 18q-47 0 -69 -36l-107 20q18 65 41 203h115q-30 -87 -59 -137z" />
    <glyph glyph-name="uni0328" unicode="&#x328;" 
d="M-324 -358q-84 0 -135 48.5t-51 123.5q0 133 141 217h131q-58 -39 -86 -75.5t-28 -76.5q0 -30 21 -49.5t52 -19.5q30 0 66 22l66 -143q-81 -47 -177 -47z" />
    <glyph glyph-name="uni0335" unicode="&#x335;" 
d="M-745 776h643v-174h-643v174z" />
    <glyph glyph-name="uni0336" unicode="&#x336;" 
d="M-1667 621v194h1544v-194h-1544z" />
    <glyph glyph-name="uni0337" unicode="&#x337;" 
d="M-686 520l-84 166l518 268l84 -166z" />
    <glyph glyph-name="uni0338" unicode="&#x338;" 
d="M-766 -123l-174 64l426 1153l174 -64z" />
    <glyph glyph-name="uni037E" unicode="&#x37e;" horiz-adv-x="499" 
d="M127 676v246h246v-246h-246zM55 -225l21 123q46 -21 92 -21q82 0 82 62q0 61 -70 61h-53v246h246v-307q0 -99 -53.5 -142t-151.5 -43q-66 0 -113 21z" />
    <glyph glyph-name="tonos" unicode="&#x384;" horiz-adv-x="606" 
d="M131 1137l74 272h268v-33l-145 -239h-197z" />
    <glyph glyph-name="dieresistonos" unicode="&#x385;" horiz-adv-x="962" 
d="M356 1130l35 273h240v-33l-107 -240h-168zM100 1153v229h226v-229h-226zM666 1153v229h225v-229h-225z" />
    <glyph glyph-name="Alphatonos" unicode="&#x386;" horiz-adv-x="1540" 
d="M25 0l589 1434h312l590 -1434h-254l-138 348h-708l-137 -348h-254zM496 553h548l-274 694zM61 1161l74 273h268v-33l-145 -240h-197z" />
    <glyph glyph-name="anoteleia" unicode="&#x387;" horiz-adv-x="499" 
d="M127 840h246v-246h-246v246z" />
    <glyph glyph-name="Epsilontonos" unicode="&#x388;" horiz-adv-x="1314" 
d="M147 1434h1045v-215h-819v-369h757v-215h-757v-420h839v-215h-1065v1434zM-322 1161l74 273h268v-33l-145 -240h-197z" />
    <glyph glyph-name="Etatonos" unicode="&#x389;" horiz-adv-x="1523" 
d="M1151 604h-778v-604h-226v1434h226v-625h778v625h225v-1434h-225v604zM-322 1161l74 273h268v-33l-145 -240h-197z" />
    <glyph glyph-name="Iotatonos" unicode="&#x38a;" horiz-adv-x="520" 
d="M147 0v1434h226v-1434h-226zM-322 1161l74 273h268v-33l-145 -240h-197z" />
    <glyph glyph-name="Omicrontonos" unicode="&#x38c;" horiz-adv-x="1667" 
d="M834 1454q151 3 290.5 -56t240.5 -159t160 -237t56 -285q3 -148 -56 -285.5t-160 -237.5t-240.5 -158.5t-290.5 -55.5q-151 -3 -290.5 55.5t-240.5 158.5t-160.5 237.5t-56.5 285.5q-3 147 56.5 284.5t160.5 237.5t240.5 159t290.5 56zM834 195q141 0 257.5 65.5
t185.5 185.5t69 271q0 229 -146.5 375.5t-365.5 146.5t-365.5 -148t-146.5 -376q0 -229 148 -374.5t364 -145.5zM-127 1161l74 273h268v-33l-145 -240h-197z" />
    <glyph glyph-name="Upsilontonos" unicode="&#x38e;" horiz-adv-x="1421" 
d="M301 1434l410 -652l430 652h256l-574 -850v-584h-225v584l-573 850h276zM-379 1161l74 273h268v-33l-145 -240h-197z" />
    <glyph glyph-name="Omegatonos" unicode="&#x38f;" horiz-adv-x="1605" 
d="M1520 778q0 -343 -308 -573h256v-205h-583v195q169 88 282 231q117 144 117 332q0 211 -135 346t-346 135t-346 -135t-135 -346q0 -188 114 -332q116 -143 285 -231v-195h-584v205h256q-307 229 -307 573q-2 140 52 266t149 216.5t229.5 143t286.5 50.5
q208 0 372.5 -88.5t254.5 -242.5t90 -345zM-156 1161l74 273h268v-33l-145 -240h-197z" />
    <glyph glyph-name="iotadieresistonos" unicode="&#x390;" horiz-adv-x="690" 
d="M131 287v684h215v-705q0 -92 82 -92q67 0 82 72l172 -103q-23 -73 -94 -118t-160 -45q-149 0 -223 81.5t-74 225.5zM100 1130l35 273h240v-33l-107 -240h-168zM-156 1153v229h226v-229h-226zM410 1153v229h225v-229h-225z" />
    <glyph glyph-name="Alpha" unicode="&#x391;" horiz-adv-x="1540" 
d="M25 0l589 1434h312l590 -1434h-254l-138 348h-708l-137 -348h-254zM496 553h548l-274 694z" />
    <glyph glyph-name="Beta" unicode="&#x392;" horiz-adv-x="1429" 
d="M147 0v1434h676q197 0 329 -109.5t132 -269.5q0 -106 -58 -188.5t-167 -129.5q129 -31 202.5 -122.5t73.5 -225.5q0 -166 -136 -277.5t-335 -111.5h-717zM373 840h440q121 0 183.5 50t62.5 144q0 86 -69 135.5t-177 49.5h-440v-379zM373 215h481q109 0 177.5 56.5
t68.5 148.5q0 90 -69 152.5t-177 62.5h-481v-420z" />
    <glyph glyph-name="Gamma" unicode="&#x393;" horiz-adv-x="1269" 
d="M1212 1219h-839v-1219h-226v1434h1065v-215z" />
    <glyph glyph-name="uni0394" unicode="&#x394;" horiz-adv-x="1540" 
d="M25 0l589 1434h312l590 -1434h-1491zM360 205h820l-410 1044z" />
    <glyph glyph-name="Epsilon" unicode="&#x395;" horiz-adv-x="1314" 
d="M147 1434h1045v-215h-819v-369h757v-215h-757v-420h839v-215h-1065v1434z" />
    <glyph glyph-name="Zeta" unicode="&#x396;" horiz-adv-x="1447" 
d="M102 215l932 1004h-921v215h1218v-215l-932 -1004h942v-215h-1239v215z" />
    <glyph glyph-name="Eta" unicode="&#x397;" horiz-adv-x="1523" 
d="M1151 604h-778v-604h-226v1434h226v-625h778v625h225v-1434h-225v604z" />
    <glyph glyph-name="Theta" unicode="&#x398;" horiz-adv-x="1667" 
d="M834 1454q151 3 290.5 -56t240.5 -159t160 -237t56 -285q3 -148 -56 -285.5t-160 -237.5t-240.5 -158.5t-290.5 -55.5q-151 -3 -290.5 55.5t-240.5 158.5t-160.5 237.5t-56.5 285.5q-3 147 56.5 284.5t160.5 237.5t240.5 159t290.5 56zM834 195q141 0 257.5 65.5
t185.5 185.5t69 271q0 229 -146.5 375.5t-365.5 146.5t-365.5 -148t-146.5 -376q0 -229 148 -374.5t364 -145.5zM567 625v184h533v-184h-533z" />
    <glyph glyph-name="Iota" unicode="&#x399;" horiz-adv-x="520" 
d="M147 0v1434h226v-1434h-226z" />
    <glyph glyph-name="Kappa" unicode="&#x39a;" horiz-adv-x="1406" 
d="M807 872l559 -872h-276l-443 702l-274 -292v-410h-226v1434h226v-711l665 711h297z" />
    <glyph glyph-name="Lambda" unicode="&#x39b;" horiz-adv-x="1540" 
d="M25 0l589 1434h312l590 -1434h-254l-492 1249l-491 -1249h-254z" />
    <glyph glyph-name="Mu" unicode="&#x39c;" horiz-adv-x="1933" 
d="M1786 0h-225v1309l-420 -1309h-348l-420 1309v-1309h-226v1434h420l400 -1260l399 1260h420v-1434z" />
    <glyph glyph-name="Nu" unicode="&#x39d;" horiz-adv-x="1579" 
d="M373 1270v-1270h-226v1434h392l667 -1272v1272h226v-1434h-392z" />
    <glyph glyph-name="Xi" unicode="&#x39e;" horiz-adv-x="1402" 
d="M1290 1219h-1177v215h1177v-215zM1044 625h-686v204h686v-204zM102 215h1198v-215h-1198v215z" />
    <glyph glyph-name="Omicron" unicode="&#x39f;" horiz-adv-x="1667" 
d="M834 1454q151 3 290.5 -56t240.5 -159t160 -237t56 -285q3 -148 -56 -285.5t-160 -237.5t-240.5 -158.5t-290.5 -55.5q-151 -3 -290.5 55.5t-240.5 158.5t-160.5 237.5t-56.5 285.5q-3 147 56.5 284.5t160.5 237.5t240.5 159t290.5 56zM834 195q141 0 257.5 65.5
t185.5 185.5t69 271q0 229 -146.5 375.5t-365.5 146.5t-365.5 -148t-146.5 -376q0 -229 148 -374.5t364 -145.5z" />
    <glyph glyph-name="Pi" unicode="&#x3a0;" horiz-adv-x="1523" 
d="M1151 1229h-778v-1229h-226v1434h1229v-1434h-225v1229z" />
    <glyph glyph-name="Rho" unicode="&#x3a1;" horiz-adv-x="1363" 
d="M373 573v-573h-226v1434h666q215 0 338 -124t123 -306q0 -85 -31 -162t-87.5 -137t-145.5 -96t-197 -36h-440zM373 788h420q109 0 177 59t68 157t-67.5 156.5t-177.5 58.5h-420v-431z" />
    <glyph glyph-name="Sigma" unicode="&#x3a3;" horiz-adv-x="1351" 
d="M870 819v-205l-481 -399h860v-215h-1147v256l564 461l-564 461v256h1106v-215h-819z" />
    <glyph glyph-name="Tau" unicode="&#x3a4;" horiz-adv-x="1384" 
d="M1327 1434v-215h-522v-1219h-225v1219h-523v215h1270z" />
    <glyph glyph-name="Upsilon" unicode="&#x3a5;" horiz-adv-x="1421" 
d="M301 1434l410 -652l430 652h256l-574 -850v-584h-225v584l-573 850h276z" />
    <glyph glyph-name="Phi" unicode="&#x3a6;" horiz-adv-x="1687" 
d="M731 0v164h-113q-149 0 -271.5 74.5t-191.5 201t-69 277.5q-3 144 67.5 272.5t195 206t269.5 74.5h113v164h225v-164h113q109 2 209 -43.5t171.5 -121.5t113 -178.5t39.5 -209.5q0 -151 -69.5 -277.5t-192 -201t-271.5 -74.5h-113v-164h-225zM639 379h92v676h-92
q-141 0 -234.5 -98.5t-93.5 -239.5t93.5 -239.5t234.5 -98.5zM956 379h93q141 0 234 98.5t93 239.5t-93 239.5t-234 98.5h-93v-676z" />
    <glyph glyph-name="Chi" unicode="&#x3a7;" horiz-adv-x="1417" 
d="M33 0l542 778l-460 656h276l318 -482l317 482h277l-461 -656l542 -778h-276l-399 594l-400 -594h-276z" />
    <glyph glyph-name="Psi" unicode="&#x3a8;" horiz-adv-x="1658" 
d="M1303 1434h225v-349q0 -291 -156 -479q-155 -186 -430 -221v-385h-225v385q-275 35 -430 221q-156 188 -156 479v349h225v-359q0 -198 94.5 -324t266.5 -157v840h225v-840q172 31 266.5 157t94.5 324v359z" />
    <glyph glyph-name="uni03A9" unicode="&#x3a9;" horiz-adv-x="1605" 
d="M1520 778q0 -343 -308 -573h256v-205h-583v195q169 88 282 231q117 144 117 332q0 211 -135 346t-346 135t-346 -135t-135 -346q0 -188 114 -332q116 -143 285 -231v-195h-584v205h256q-307 229 -307 573q-2 140 52 266t149 216.5t229.5 143t286.5 50.5
q208 0 372.5 -88.5t254.5 -242.5t90 -345z" />
    <glyph glyph-name="Iotadieresis" unicode="&#x3aa;" horiz-adv-x="520" 
d="M147 0v1434h226v-1434h-226zM-37 1616v229h225v-229h-225zM332 1616v229h225v-229h-225z" />
    <glyph glyph-name="Upsilondieresis" unicode="&#x3ab;" horiz-adv-x="1421" 
d="M301 1434l410 -652l430 652h256l-574 -850v-584h-225v584l-573 850h276zM408 1616v229h225v-229h-225zM776 1616v229h225v-229h-225z" />
    <glyph glyph-name="alphatonos" unicode="&#x3ac;" horiz-adv-x="1314" 
d="M74 485q0 233 122 369.5t296 136.5q102 0 175 -44.5t107 -117.5v142h215v-705q0 -42 19.5 -64t52.5 -22q60 0 72 66l174 -94q-23 -75 -93.5 -123.5t-156.5 -48.5q-102 0 -168 52t-84 140q-26 -86 -107.5 -139t-205.5 -53q-83 0 -158.5 34.5t-133.5 97.5t-92 160t-34 213z
M774 494q0 147 -67 225t-177 78q-109 0 -175 -81.5t-66 -230.5t66 -230t175 -81q110 0 177 82t67 238zM555 1137l74 272h268v-33l-145 -239h-197z" />
    <glyph glyph-name="epsilontonos" unicode="&#x3ad;" horiz-adv-x="937" 
d="M78 266q0 94 49.5 150t134.5 76q-75 20 -119.5 80.5t-44.5 144.5q0 126 96.5 200t251.5 74q281 0 379 -264l-184 -92q-46 174 -195 174q-64 0 -103.5 -30t-39.5 -83t35.5 -82.5t97.5 -29.5h72v-185h-92q-62 0 -97.5 -27.5t-35.5 -74.5q0 -61 47.5 -92t126.5 -31
q198 0 235 205l185 -82q-25 -140 -133.5 -228.5t-266.5 -88.5q-107 0 -197 33.5t-146 100t-56 152.5zM358 1137l74 272h268v-33l-145 -239h-197z" />
    <glyph glyph-name="etatonos" unicode="&#x3ae;" horiz-adv-x="1122" 
d="M776 -406v967q0 114 -57.5 180t-147.5 66q-104 0 -164.5 -68t-60.5 -188v-551h-215v971h215v-133q112 153 305 153q154 0 247 -96t93 -260v-1041h-215zM487 1137l74 272h268v-33l-145 -239h-197z" />
    <glyph glyph-name="iotatonos" unicode="&#x3af;" horiz-adv-x="690" 
d="M131 287v684h215v-705q0 -92 82 -92q67 0 82 72l172 -103q-23 -73 -94 -118t-160 -45q-149 0 -223 81.5t-74 225.5zM141 1137l74 272h268v-33l-145 -239h-197z" />
    <glyph glyph-name="upsilondieresistonos" unicode="&#x3b0;" horiz-adv-x="1118" 
d="M131 410v561h215v-568q0 -114 54.5 -171.5t158.5 -57.5t158.5 57.5t54.5 171.5v568h215v-561q0 -197 -114.5 -313.5t-313.5 -116.5t-313.5 116.5t-114.5 313.5zM420 1130l35 273h239v-33l-106 -240h-168zM164 1153v229h225v-229h-225zM729 1153v229h225v-229h-225z" />
    <glyph glyph-name="alpha" unicode="&#x3b1;" horiz-adv-x="1314" 
d="M74 485q0 233 122 369.5t296 136.5q102 0 175 -44.5t107 -117.5v142h215v-705q0 -42 19.5 -64t52.5 -22q60 0 72 66l174 -94q-23 -75 -93.5 -123.5t-156.5 -48.5q-102 0 -168 52t-84 140q-26 -86 -107.5 -139t-205.5 -53q-83 0 -158.5 34.5t-133.5 97.5t-92 160t-34 213z
M774 494q0 147 -67 225t-177 78q-109 0 -175 -81.5t-66 -230.5t66 -230t175 -81q110 0 177 82t67 238z" />
    <glyph glyph-name="beta" unicode="&#x3b2;" horiz-adv-x="1130" 
d="M131 -406v1481q0 172 105 275.5t278 103.5q164 0 263.5 -89t99.5 -230q0 -107 -54 -185t-139 -110q67 -6 128.5 -35t111.5 -78.5t80 -126.5t30 -170q0 -198 -115.5 -324t-295.5 -126q-83 0 -157.5 28t-119.5 82v-496h-215zM819 434q0 136 -100 215.5t-240 79.5h-20v184
h20q80 0 136.5 55t56.5 138q0 77 -43 120.5t-113 43.5q-82 0 -126 -52t-44 -149v-643q0 -113 71 -181.5t173 -68.5q108 0 168.5 66.5t60.5 191.5z" />
    <glyph glyph-name="gamma" unicode="&#x3b3;" horiz-adv-x="1110" 
d="M449 -406v560l-412 817h229l289 -613l289 613h229l-411 -817v-560h-213z" />
    <glyph glyph-name="delta" unicode="&#x3b4;" horiz-adv-x="1130" 
d="M74 471q0 162 79 277t183 153q-104 17 -164.5 83t-60.5 163q0 96 62 167t160.5 105.5t217.5 34.5q246 0 420 -143l-113 -164q-122 113 -297 113q-109 0 -172 -38.5t-63 -105.5q0 -64 61.5 -98.5t177.5 -34.5q117 0 212 -40.5t155.5 -109t92.5 -156.5t32 -185
q0 -224 -137 -368t-355 -144q-143 0 -256 66t-174 177.5t-61 247.5zM842 485q0 137 -78 224.5t-199 87.5t-198.5 -87.5t-77.5 -224.5t77.5 -224t198.5 -87q122 0 199.5 87.5t77.5 223.5z" />
    <glyph glyph-name="epsilon" unicode="&#x3b5;" horiz-adv-x="937" 
d="M78 266q0 94 49.5 150t134.5 76q-75 20 -119.5 80.5t-44.5 144.5q0 126 96.5 200t251.5 74q281 0 379 -264l-184 -92q-46 174 -195 174q-64 0 -103.5 -30t-39.5 -83t35.5 -82.5t97.5 -29.5h72v-185h-92q-62 0 -97.5 -27.5t-35.5 -74.5q0 -61 47.5 -92t126.5 -31
q198 0 235 205l185 -82q-25 -140 -133.5 -228.5t-266.5 -88.5q-107 0 -197 33.5t-146 100t-56 152.5z" />
    <glyph glyph-name="zeta" unicode="&#x3b6;" horiz-adv-x="1038" 
d="M905 -426l-164 109q80 65 80 151q0 61 -44 103.5t-130 42.5q-162 0 -291 66.5t-205.5 195.5t-76.5 301q0 136 46.5 253.5t128 203t185 146t223.5 93.5h-553v195h902v-195q-373 -103 -550 -271.5t-177 -404.5q0 -194 103.5 -296.5t285.5 -102.5q161 0 259.5 -84.5
t98.5 -233.5q0 -78 -33 -149.5t-88 -122.5z" />
    <glyph glyph-name="eta" unicode="&#x3b7;" horiz-adv-x="1122" 
d="M776 -406v967q0 114 -57.5 180t-147.5 66q-104 0 -164.5 -68t-60.5 -188v-551h-215v971h215v-133q112 153 305 153q154 0 247 -96t93 -260v-1041h-215z" />
    <glyph glyph-name="theta" unicode="&#x3b8;" horiz-adv-x="1155" 
d="M74 717q0 357 133 547t371 190t370.5 -190t132.5 -547q0 -359 -131 -548t-372 -189t-372.5 189t-131.5 548zM289 809h577q-8 216 -82 333.5t-206 117.5q-133 0 -207 -118t-82 -333zM866 625h-577q8 -225 77 -338t212 -113t211.5 112.5t76.5 338.5z" />
    <glyph glyph-name="iota" unicode="&#x3b9;" horiz-adv-x="690" 
d="M131 287v684h215v-705q0 -92 82 -92q67 0 82 72l172 -103q-23 -73 -94 -118t-160 -45q-149 0 -223 81.5t-74 225.5z" />
    <glyph glyph-name="kappa" unicode="&#x3ba;" horiz-adv-x="995" 
d="M131 0v971h215v-357l307 357h277l-420 -459l440 -512h-276l-328 399v-399h-215z" />
    <glyph glyph-name="lambda" unicode="&#x3bb;" horiz-adv-x="1056" 
d="M1032 0h-225l-279 743l-274 -743h-225l397 1016l-51 135q-34 94 -121 94q-82 0 -117 -80l-145 113q38 73 112 114.5t166 41.5q106 0 183.5 -54.5t115.5 -158.5z" />
    <glyph glyph-name="uni03BC" unicode="&#x3bc;" horiz-adv-x="1132" 
d="M131 -406v1377h215v-572q0 -114 54 -174.5t163 -60.5q99 0 161 79.5t62 217.5v510h215v-971h-215v154q-76 -174 -254 -174q-61 0 -110 19t-76 52v-457h-215z" />
    <glyph glyph-name="nu" unicode="&#x3bd;" horiz-adv-x="1093" 
d="M262 971l285 -756l284 756h226l-387 -971h-246l-387 971h225z" />
    <glyph glyph-name="xi" unicode="&#x3be;" horiz-adv-x="1011" 
d="M877 -426l-164 109q82 67 82 151q0 63 -47 104.5t-148 41.5q-243 0 -382.5 113t-139.5 292q0 139 70 237t200 146q-96 43 -152.5 123t-56.5 186q0 166 122.5 271.5t297.5 105.5q187 0 301 -92.5t139 -265.5l-202 -52q-7 113 -68 169.5t-162 56.5t-162 -57t-61 -144
q0 -106 72.5 -166.5t204.5 -60.5h143v-185h-174q-149 0 -228 -68.5t-79 -182.5q0 -122 83.5 -182t274.5 -60q162 0 260 -87.5t98 -240.5q0 -72 -33.5 -141.5t-88.5 -120.5z" />
    <glyph glyph-name="omicron" unicode="&#x3bf;" horiz-adv-x="1146" 
d="M74 485q0 217 140.5 361.5t358.5 144.5t359 -144.5t141 -361.5t-141 -361t-359 -144t-358.5 144t-140.5 361zM858 485q0 136 -81 224t-204 88t-203.5 -88t-80.5 -224t80.5 -223.5t203.5 -87.5t204 87.5t81 223.5z" />
    <glyph glyph-name="pi" unicode="&#x3c0;" horiz-adv-x="1329" 
d="M725 287v499h-238v-786h-215v786h-245v185h1138v-185h-225v-520q0 -41 21.5 -63.5t60.5 -22.5q67 0 82 66l172 -103q-23 -73 -94 -118t-160 -45q-149 0 -223 81.5t-74 225.5z" />
    <glyph glyph-name="rho" unicode="&#x3c1;" horiz-adv-x="1179" 
d="M131 -406v840q0 134 38 241t104.5 175.5t154.5 104.5t190 36q225 0 356.5 -143t131.5 -365q0 -219 -126 -361t-325 -142q-102 0 -186 39t-133 112v-537h-205zM891 483q0 141 -77 227.5t-200 86.5t-199.5 -86.5t-76.5 -227.5t76.5 -227t199.5 -86t200 86t77 227z" />
    <glyph glyph-name="uni03C2" unicode="&#x3c2;" horiz-adv-x="1038" 
d="M885 -426l-164 109q80 65 80 151q0 62 -48 104t-151 42q-149 0 -269 62t-189.5 179.5t-69.5 270.5q0 145 67 260t178.5 177t245.5 62q181 0 305.5 -95.5t155.5 -260.5l-195 -62q-17 109 -88.5 171.5t-177.5 62.5q-73 0 -137 -35t-106.5 -108.5t-42.5 -171.5
q0 -151 99.5 -239.5t264.5 -88.5q162 0 262.5 -88t100.5 -240q0 -72 -33 -141.5t-88 -120.5z" />
    <glyph glyph-name="sigma" unicode="&#x3c3;" horiz-adv-x="1146" 
d="M74 475q0 103 36.5 193t103 157.5t168 106.5t224.5 39h471v-185h-198q83 -45 130.5 -133t47.5 -202q0 -198 -137 -334.5t-355 -136.5q-143 0 -256 67t-174 179.5t-61 248.5zM842 475q0 131 -77.5 216t-195.5 85q-120 0 -200 -86q-80 -83 -80 -215q0 -131 77 -216t199 -85
t199.5 85t77.5 216z" />
    <glyph glyph-name="tau" unicode="&#x3c4;" horiz-adv-x="890" 
d="M287 287v489h-246v195h747v-195h-286v-510q0 -92 82 -92q67 0 82 72l172 -103q-23 -73 -94 -118t-160 -45q-149 0 -223 81.5t-74 225.5z" />
    <glyph glyph-name="upsilon" unicode="&#x3c5;" horiz-adv-x="1118" 
d="M131 410v561h215v-568q0 -114 54.5 -171.5t158.5 -57.5t158.5 57.5t54.5 171.5v568h215v-561q0 -197 -114.5 -313.5t-313.5 -116.5t-313.5 116.5t-114.5 313.5z" />
    <glyph glyph-name="phi" unicode="&#x3c6;" horiz-adv-x="1447" 
d="M1374 485q0 -213 -134 -349t-337 -136h-72v-406h-215v406h-71q-203 0 -337 136t-134 349t134 349.5t337 136.5h71v463h215v-463h72q203 0 337 -136.5t134 -349.5zM565 195h51v581h-51q-128 0 -207 -80.5t-79 -210.5q0 -129 78.5 -209.5t207.5 -80.5zM1169 485
q0 130 -79 210.5t-207 80.5h-52v-581h52q129 0 207.5 80.5t78.5 209.5z" />
    <glyph glyph-name="chi" unicode="&#x3c7;" horiz-adv-x="991" 
d="M25 -406l348 719l-318 658h246l195 -439l194 439h246l-318 -658l349 -719h-246l-225 498l-226 -498h-245z" />
    <glyph glyph-name="psi" unicode="&#x3c8;" horiz-adv-x="1357" 
d="M571 195v1239h215v-1239q107 5 166.5 74t59.5 202v500h215v-490q0 -226 -114.5 -349.5t-326.5 -131.5v-406h-215v406q-212 8 -326 131.5t-114 349.5v490h215v-500q0 -133 59 -202t166 -74z" />
    <glyph glyph-name="omega" unicode="&#x3c9;" horiz-adv-x="1591" 
d="M688 420v336h215v-336q0 -246 191 -246q99 0 154 91t55 247q0 254 -156 459h231q61 -85 100.5 -205t39.5 -244q0 -241 -105 -391q-103 -151 -309 -151q-109 0 -190.5 54.5t-118.5 153.5q-36 -101 -117 -154.5t-191 -53.5q-205 0 -311 151q-102 150 -102 391q0 125 39 245
t100 204h231q-155 -204 -155 -459q0 -156 55 -247t154 -91q190 0 190 246z" />
    <glyph glyph-name="iotadieresis" unicode="&#x3ca;" horiz-adv-x="690" 
d="M131 287v684h215v-705q0 -92 82 -92q67 0 82 72l172 -103q-23 -73 -94 -118t-160 -45q-149 0 -223 81.5t-74 225.5zM-57 1153v229h225v-229h-225zM311 1153v229h226v-229h-226z" />
    <glyph glyph-name="upsilondieresis" unicode="&#x3cb;" horiz-adv-x="1118" 
d="M131 410v561h215v-568q0 -114 54.5 -171.5t158.5 -57.5t158.5 57.5t54.5 171.5v568h215v-561q0 -197 -114.5 -313.5t-313.5 -116.5t-313.5 116.5t-114.5 313.5zM262 1153v229h225v-229h-225zM631 1153v229h225v-229h-225z" />
    <glyph glyph-name="omicrontonos" unicode="&#x3cc;" horiz-adv-x="1146" 
d="M74 485q0 217 140.5 361.5t358.5 144.5t359 -144.5t141 -361.5t-141 -361t-359 -144t-358.5 144t-140.5 361zM858 485q0 136 -81 224t-204 88t-203.5 -88t-80.5 -224t80.5 -223.5t203.5 -87.5t204 87.5t81 223.5zM475 1137l74 272h268v-33l-145 -239h-197z" />
    <glyph glyph-name="upsilontonos" unicode="&#x3cd;" horiz-adv-x="1118" 
d="M131 410v561h215v-568q0 -114 54.5 -171.5t158.5 -57.5t158.5 57.5t54.5 171.5v568h215v-561q0 -197 -114.5 -313.5t-313.5 -116.5t-313.5 116.5t-114.5 313.5zM461 1137l74 272h268v-33l-146 -239h-196z" />
    <glyph glyph-name="omegatonos" unicode="&#x3ce;" horiz-adv-x="1591" 
d="M688 420v336h215v-336q0 -246 191 -246q99 0 154 91t55 247q0 254 -156 459h231q61 -85 100.5 -205t39.5 -244q0 -241 -105 -391q-103 -151 -309 -151q-109 0 -190.5 54.5t-118.5 153.5q-36 -101 -117 -154.5t-191 -53.5q-205 0 -311 151q-102 150 -102 391q0 125 39 245
t100 204h231q-155 -204 -155 -459q0 -156 55 -247t154 -91q190 0 190 246zM698 1137l74 272h268v-33l-145 -239h-197z" />
    <glyph glyph-name="uni0400" unicode="&#x400;" horiz-adv-x="1314" 
d="M147 1434h1045v-215h-819v-369h757v-215h-757v-420h839v-215h-1065v1434zM537 1599l-248 240v33h276l176 -273h-204z" />
    <glyph glyph-name="uni0401" unicode="&#x401;" horiz-adv-x="1314" 
d="M147 1434h1045v-215h-819v-369h757v-215h-757v-420h839v-215h-1065v1434zM342 1616v229h225v-229h-225zM711 1616v229h225v-229h-225z" />
    <glyph glyph-name="uni0402" unicode="&#x402;" horiz-adv-x="1724" 
d="M1251 -225v32q78 145 116 281t38 289q0 405 -295 405q-139 0 -222 -100t-83 -262v-420h-225v1229h-523v205h1270v-205h-522v-441q59 99 146 151t220 52q231 0 345 -166q114 -163 114 -436q0 -195 -39 -328q-44 -148 -112 -286h-228z" />
    <glyph glyph-name="uni0403" unicode="&#x403;" horiz-adv-x="1269" 
d="M1212 1219h-839v-1219h-226v1434h1065v-215zM578 1599l176 273h276v-33l-248 -240h-204z" />
    <glyph glyph-name="uni0404" unicode="&#x404;" horiz-adv-x="1605" 
d="M1335 635l205 -82q-57 -257 -248.5 -415t-478.5 -158q-211 -3 -379 94.5t-259 266.5t-89 376q-3 152 53.5 289.5t153.5 236.5t233.5 156.5t286.5 54.5q133 0 245 -38.5t190.5 -105.5t131.5 -152.5t78 -184.5l-205 -92q-33 167 -147.5 267.5t-292.5 100.5
q-187 0 -317 -112q-131 -113 -166 -308h618v-215h-620q26 -201 156.5 -315.5t328.5 -114.5q224 0 356 129t166 322z" />
    <glyph glyph-name="uni0405" unicode="&#x405;" horiz-adv-x="1314" 
d="M643 1239q-115 0 -185.5 -49.5t-70.5 -124.5q0 -63 47.5 -110t124.5 -75t195 -51q251 -48 372 -148.5t121 -270.5q0 -186 -156 -308t-403 -122q-205 0 -385 98q-178 102 -254 342l215 133q38 -173 149 -265.5t277 -92.5q146 0 234 56.5t88 147.5q0 88 -78.5 142
t-259.5 84q-255 44 -383.5 149t-128.5 289q0 162 141.5 276.5t360.5 114.5q182 0 322.5 -92t199.5 -256l-215 -123q-30 124 -113 190t-215 66z" />
    <glyph glyph-name="uni0406" unicode="&#x406;" horiz-adv-x="520" 
d="M147 0v1434h226v-1434h-226z" />
    <glyph glyph-name="uni0407" unicode="&#x407;" horiz-adv-x="520" 
d="M147 0v1434h226v-1434h-226zM-37 1616v229h225v-229h-225zM332 1616v229h225v-229h-225z" />
    <glyph glyph-name="uni0408" unicode="&#x408;" horiz-adv-x="1232" 
d="M877 1434h225v-953q0 -210 -119 -356q-118 -145 -383 -145q-235 0 -368.5 137.5t-133.5 353.5q0 137 62 246l215 -82q-51 -74 -51 -184q0 -112 79 -184t197 -72q136 0 206.5 83.5t70.5 229.5v926z" />
    <glyph glyph-name="uni0409" unicode="&#x409;" horiz-adv-x="2095" 
d="M53 0v33q123 217 123 684v717h973v-574h391q108 0 197 -35.5t145.5 -96t87.5 -137t31 -161.5q0 -182 -123 -306t-338 -124h-616v1229h-523v-492q0 -516 -112 -737h-236zM1149 215h371q110 0 177.5 58.5t67.5 156.5t-67.5 156.5t-177.5 58.5h-371v-430z" />
    <glyph glyph-name="uni040A" unicode="&#x40a;" horiz-adv-x="2035" 
d="M147 0v1434h226v-574h522v574h225v-574h361q108 0 197 -35.5t145.5 -96t87.5 -137t31 -161.5q0 -182 -123 -306t-338 -124h-586v645h-522v-645h-226zM1120 215h340q110 0 178 59t68 156t-68 156t-178 59h-340v-430z" />
    <glyph glyph-name="uni040B" unicode="&#x40b;" horiz-adv-x="1656" 
d="M580 0v1219h-523v215h1270v-215h-522v-412q44 87 137 135.5t211 48.5q165 0 262.5 -96t97.5 -256v-639h-225v567q0 115 -59 175.5t-168 60.5q-106 0 -181 -77.5t-75 -203.5v-522h-225z" />
    <glyph glyph-name="uni040C" unicode="&#x40c;" horiz-adv-x="1343" 
d="M147 0v1434h226v-607l604 607h297l-686 -686l727 -748h-318l-624 649v-649h-226zM567 1599l176 273h277v-33l-248 -240h-205z" />
    <glyph glyph-name="uni040D" unicode="&#x40d;" horiz-adv-x="1579" 
d="M1206 1270l-667 -1270h-392v1434h226v-1272l667 1272h392v-1434h-226v1270zM664 1599l-248 240v33h276l176 -273h-204z" />
    <glyph glyph-name="uni040E" unicode="&#x40e;" horiz-adv-x="1439" 
d="M236 0l358 543l-565 891h270l422 -686l426 686h264l-901 -1434h-274zM979 1823q0 -107 -71 -167.5t-185 -60.5t-185 60.5t-71 167.5q0 22 2 28h156l-2 -20q0 -39 28 -65.5t72 -26.5t72 26.5t28 65.5l-2 20h156q2 -6 2 -28z" />
    <glyph glyph-name="uni040F" unicode="&#x40f;" horiz-adv-x="1384" 
d="M590 -225v225h-443v1434h226v-1229h639v1229h225v-1434h-442v-225h-205z" />
    <glyph glyph-name="uni0410" unicode="&#x410;" horiz-adv-x="1540" 
d="M25 0l589 1434h312l590 -1434h-254l-138 348h-708l-137 -348h-254zM496 553h548l-274 694z" />
    <glyph glyph-name="uni0411" unicode="&#x411;" horiz-adv-x="1439" 
d="M147 0v1434h1014v-215h-788v-375h501q207 0 339.5 -114t132.5 -308t-132.5 -308t-339.5 -114h-727zM373 215h491q109 0 177.5 58t68.5 149t-68.5 149t-177.5 58h-491v-414z" />
    <glyph glyph-name="uni0412" unicode="&#x412;" horiz-adv-x="1429" 
d="M147 0v1434h676q197 0 329 -109.5t132 -269.5q0 -106 -58 -188.5t-167 -129.5q129 -31 202.5 -122.5t73.5 -225.5q0 -166 -136 -277.5t-335 -111.5h-717zM373 840h440q121 0 183.5 50t62.5 144q0 86 -69 135.5t-177 49.5h-440v-379zM373 215h481q109 0 177.5 56.5
t68.5 148.5q0 90 -69 152.5t-177 62.5h-481v-420z" />
    <glyph glyph-name="uni0413" unicode="&#x413;" horiz-adv-x="1269" 
d="M1212 1219h-839v-1219h-226v1434h1065v-215z" />
    <glyph glyph-name="uni0414" unicode="&#x414;" horiz-adv-x="1480" 
d="M49 -225v430h144q89 121 129 227q44 113 53 227q12 117 12 314v461h870v-1229h175v-430h-205v225h-973v-225h-205zM449 205h583v1024h-430v-256q0 -267 -31 -445q-27 -172 -122 -323z" />
    <glyph glyph-name="uni0415" unicode="&#x415;" horiz-adv-x="1314" 
d="M147 1434h1045v-215h-819v-369h757v-215h-757v-420h839v-215h-1065v1434z" />
    <glyph glyph-name="uni0416" unicode="&#x416;" horiz-adv-x="2166" 
d="M1411 748l727 -748h-317l-625 649v-649h-225v649l-625 -649h-317l727 748l-686 686h297l604 -607v607h225v-607l604 607h297z" />
    <glyph glyph-name="uni0417" unicode="&#x417;" horiz-adv-x="1210" 
d="M82 430l215 82q8 -144 90.5 -230.5t226.5 -86.5q131 0 204 51.5t73 152.5q0 103 -62.5 159t-173.5 56h-92v215h82q225 0 225 199q0 98 -71.5 154.5t-194.5 56.5q-110 0 -181.5 -63t-94.5 -183l-205 92q42 172 168.5 270.5t322.5 98.5q217 0 349 -111q133 -109 133 -299
q0 -123 -58.5 -204.5t-167.5 -112.5q112 -26 179 -110.5t67 -217.5q0 -200 -141 -311q-141 -108 -371 -108q-115 0 -210 35.5t-158.5 97.5t-102 142.5t-51.5 174.5z" />
    <glyph glyph-name="uni0418" unicode="&#x418;" horiz-adv-x="1579" 
d="M1206 1270l-667 -1270h-392v1434h226v-1272l667 1272h392v-1434h-226v1270z" />
    <glyph glyph-name="uni0419" unicode="&#x419;" horiz-adv-x="1579" 
d="M1206 1270l-667 -1270h-392v1434h226v-1272l667 1272h392v-1434h-226v1270zM1022 1823q0 -107 -71 -167.5t-185 -60.5t-185 60.5t-71 167.5q0 22 2 28h156l-2 -20q0 -39 28 -65.5t72 -26.5t72 26.5t28 65.5l-2 20h156q2 -6 2 -28z" />
    <glyph glyph-name="uni041A" unicode="&#x41a;" horiz-adv-x="1343" 
d="M147 0v1434h226v-607l604 607h297l-686 -686l727 -748h-318l-624 649v-649h-226z" />
    <glyph glyph-name="uni041B" unicode="&#x41b;" horiz-adv-x="1449" 
d="M53 0v33q123 217 123 684v717h1127v-1434h-226v1229h-676v-492q0 -516 -112 -737h-236z" />
    <glyph glyph-name="uni041C" unicode="&#x41c;" horiz-adv-x="1933" 
d="M1786 0h-225v1309l-420 -1309h-348l-420 1309v-1309h-226v1434h420l400 -1260l399 1260h420v-1434z" />
    <glyph glyph-name="uni041D" unicode="&#x41d;" horiz-adv-x="1523" 
d="M1151 604h-778v-604h-226v1434h226v-625h778v625h225v-1434h-225v604z" />
    <glyph glyph-name="uni041E" unicode="&#x41e;" horiz-adv-x="1667" 
d="M834 1454q151 3 290.5 -56t240.5 -159t160 -237t56 -285q3 -148 -56 -285.5t-160 -237.5t-240.5 -158.5t-290.5 -55.5q-151 -3 -290.5 55.5t-240.5 158.5t-160.5 237.5t-56.5 285.5q-3 147 56.5 284.5t160.5 237.5t240.5 159t290.5 56zM834 195q141 0 257.5 65.5
t185.5 185.5t69 271q0 229 -146.5 375.5t-365.5 146.5t-365.5 -148t-146.5 -376q0 -229 148 -374.5t364 -145.5z" />
    <glyph glyph-name="uni041F" unicode="&#x41f;" horiz-adv-x="1523" 
d="M1151 1229h-778v-1229h-226v1434h1229v-1434h-225v1229z" />
    <glyph glyph-name="uni0420" unicode="&#x420;" horiz-adv-x="1363" 
d="M373 573v-573h-226v1434h666q215 0 338 -124t123 -306q0 -85 -31 -162t-87.5 -137t-145.5 -96t-197 -36h-440zM373 788h420q109 0 177 59t68 157t-67.5 156.5t-177.5 58.5h-420v-431z" />
    <glyph glyph-name="uni0421" unicode="&#x421;" horiz-adv-x="1605" 
d="M322 717q0 -247 135 -390t356 -143q224 0 356 129t166 322l205 -82q-57 -257 -248.5 -415t-478.5 -158q-211 -3 -379 94.5t-259 266.5t-89 376q-3 152 53.5 289.5t153.5 236.5t233.5 156.5t286.5 54.5q133 0 245 -38.5t190.5 -105.5t131.5 -152.5t78 -184.5l-205 -92
q-33 167 -147.5 267.5t-292.5 100.5q-213 0 -352 -147t-139 -385z" />
    <glyph glyph-name="uni0422" unicode="&#x422;" horiz-adv-x="1384" 
d="M1327 1434v-215h-522v-1219h-225v1219h-523v215h1270z" />
    <glyph glyph-name="uni0423" unicode="&#x423;" horiz-adv-x="1439" 
d="M236 0l358 543l-565 891h270l422 -686l426 686h264l-901 -1434h-274z" />
    <glyph glyph-name="uni0424" unicode="&#x424;" horiz-adv-x="1695" 
d="M961 0h-226v164h-117q-149 0 -271.5 74.5t-191.5 201t-69 277.5q-3 144 67.5 272.5t195 206t269.5 74.5h117v164h226v-164h116q109 2 209 -43.5t171.5 -121.5t113 -178.5t39.5 -209.5q0 -151 -69.5 -277.5t-192 -201t-271.5 -74.5h-116v-164zM647 379h88v676h-88
q-147 0 -241.5 -98t-94.5 -240t94.5 -240t241.5 -98zM1049 1055h-88v-676h88q147 0 241 98t94 240t-94 240t-241 98z" />
    <glyph glyph-name="uni0425" unicode="&#x425;" horiz-adv-x="1417" 
d="M33 0l542 778l-460 656h276l318 -482l317 482h277l-461 -656l542 -778h-276l-399 594l-400 -594h-276z" />
    <glyph glyph-name="uni0426" unicode="&#x426;" horiz-adv-x="1435" 
d="M1182 -225v225h-1035v1434h226v-1229h614v1229h225v-1229h174v-430h-204z" />
    <glyph glyph-name="uni0427" unicode="&#x427;" horiz-adv-x="1417" 
d="M1044 0v481q-70 -73 -177 -115t-234 -42q-157 0 -272 68.5t-172.5 184t-57.5 263.5v594h225v-557q0 -160 87.5 -249t240.5 -89q102 0 187 45t173 145v705h226v-1434h-226z" />
    <glyph glyph-name="uni0428" unicode="&#x428;" horiz-adv-x="1929" 
d="M1556 1434h226v-1434h-1635v1434h226v-1229h479v1229h225v-1229h479v1229z" />
    <glyph glyph-name="uni0429" unicode="&#x429;" horiz-adv-x="2004" 
d="M1751 -225v225h-1604v1434h226v-1229h479v1229h225v-1229h479v1229h226v-1229h174v-430h-205z" />
    <glyph glyph-name="uni042A" unicode="&#x42a;" horiz-adv-x="1636" 
d="M1542 422q0 -194 -132 -308t-339 -114h-719v1219h-295v215h521v-590h493q207 0 339 -114t132 -308zM1307 422q0 91 -68.5 149t-177.5 58h-483v-414h483q109 0 177.5 58t68.5 149z" />
    <glyph glyph-name="uni042B" unicode="&#x42b;" horiz-adv-x="1951" 
d="M147 0v1434h226v-590h493q207 0 339 -114t132 -308t-132 -308t-339 -114h-719zM373 215h483q109 0 177.5 58t68.5 149t-68.5 149t-177.5 58h-483v-414zM1579 0v1434h225v-1434h-225z" />
    <glyph glyph-name="uni042C" unicode="&#x42c;" horiz-adv-x="1431" 
d="M147 0v1434h226v-590h493q207 0 339 -114t132 -308t-132 -308t-339 -114h-719zM373 215h483q109 0 177.5 58t68.5 149t-68.5 149t-177.5 58h-483v-414z" />
    <glyph glyph-name="uni042D" unicode="&#x42d;" horiz-adv-x="1605" 
d="M66 553l204 82q34 -193 166 -322t357 -129q198 0 332 114.5t163 315.5h-639v215h639q-33 190 -171.5 305t-323.5 115q-178 0 -293 -100.5t-148 -267.5l-205 92q55 204 222 342q168 139 438 139q149 3 282 -53t228.5 -154.5t150 -236.5t52.5 -293q2 -209 -86.5 -377.5
t-256.5 -265.5t-384 -94q-289 0 -479.5 157t-247.5 416z" />
    <glyph glyph-name="uni042E" unicode="&#x42e;" horiz-adv-x="2269" 
d="M2183 717q3 -148 -56 -285.5t-160 -237.5t-240.5 -158.5t-290.5 -55.5q-182 -3 -344.5 80t-267.5 227t-128 317h-323v-604h-226v1434h226v-625h321q14 132 79.5 252t164 207t229 137.5t269.5 48.5q151 3 290.5 -56t240.5 -159t160 -237t56 -285zM1948 717
q0 229 -146.5 375.5t-365.5 146.5t-365.5 -148t-146.5 -376q0 -229 148 -374.5t364 -145.5q141 0 257.5 65.5t185.5 185.5t69 271z" />
    <glyph glyph-name="uni042F" unicode="&#x42f;" horiz-adv-x="1394" 
d="M90 0v33l471 561q-212 0 -336.5 124.5t-124.5 315.5q0 169 125.5 284.5t335.5 115.5h686v-1434h-225v594h-164l-491 -594h-277zM582 809h440v410h-440q-117 0 -181.5 -53.5t-64.5 -151.5t64.5 -151.5t181.5 -53.5z" />
    <glyph glyph-name="uni0430" unicode="&#x430;" horiz-adv-x="1073" 
d="M92 276q0 153 101.5 232.5t269.5 79.5q89 0 172 -21l102 -24v71q0 95 -63 149t-162 54q-95 0 -156.5 -51.5t-79.5 -140.5l-194 51q33 146 144 230.5t286 84.5q207 0 318.5 -101t111.5 -286v-604h-205v164q-33 -85 -116.5 -134.5t-208.5 -49.5q-127 0 -223.5 81.5
t-96.5 214.5zM737 369v10l-78 20q-105 27 -161 27q-84 0 -132.5 -32.5t-48.5 -96.5q0 -60 46 -96.5t135 -36.5q107 0 173 55t66 150z" />
    <glyph glyph-name="uni0431" unicode="&#x431;" horiz-adv-x="1150" 
d="M74 594q0 297 143 465q145 173 379 237q174 49 228 88t48 121h195q2 -8 2 -32q0 -133 -95 -212.5t-276 -123.5q-189 -44 -286.5 -132t-128.5 -237q48 104 141 163.5t213 59.5q106 0 191 -41t138.5 -111.5t82 -162t28.5 -195.5q0 -140 -61 -254t-174 -180.5t-256 -66.5
q-264 0 -389 174q-123 176 -123 440zM862 481q0 141 -80.5 228.5t-206.5 87.5t-206 -87.5t-80 -228.5q0 -133 83.5 -220t202.5 -87q129 0 208 83t79 224z" />
    <glyph glyph-name="uni0432" unicode="&#x432;" horiz-adv-x="1101" 
d="M131 0v971h533q146 0 231.5 -69t85.5 -185q0 -74 -45.5 -138t-118.5 -87q91 -18 143 -75t52 -151q0 -119 -86.5 -192.5t-231.5 -73.5h-563zM346 584h307q54 0 83.5 25.5t29.5 70.5t-29.5 70.5t-83.5 25.5h-307v-192zM346 195h328q58 0 90.5 28t32.5 74q0 48 -32 75
t-91 27h-328v-204z" />
    <glyph glyph-name="uni0433" unicode="&#x433;" horiz-adv-x="847" 
d="M131 0v971h680v-205h-465v-766h-215z" />
    <glyph glyph-name="uni0434" unicode="&#x434;" horiz-adv-x="1173" 
d="M59 -225v420h93q70 140 90 245q22 119 22 287v244h727v-776h123v-420h-194v225h-666v-225h-195zM377 195h409v581h-317v-49q0 -162 -22 -287t-70 -245z" />
    <glyph glyph-name="uni0435" unicode="&#x435;" horiz-adv-x="1087" 
d="M842 369l184 -72q-52 -154 -165 -235.5t-283 -81.5q-226 0 -365 139.5t-139 372.5q0 213 131.5 356t341.5 143q193 0 315.5 -116.5t122.5 -311.5q0 -50 -10 -112h-686q0 -141 86 -215q90 -72 205 -72q104 0 171.5 52.5t90.5 152.5zM289 594h481l2 18q0 89 -63.5 142
t-163.5 53q-101 0 -172 -58t-84 -155z" />
    <glyph glyph-name="uni0436" unicode="&#x436;" horiz-adv-x="1513" 
d="M45 0l440 512l-419 459h276l307 -357v357h215v-357l307 357h277l-420 -459l440 -512h-276l-328 399v-399h-215v399l-327 -399h-277z" />
    <glyph glyph-name="uni0437" unicode="&#x437;" horiz-adv-x="937" 
d="M61 297l185 82q37 -205 235 -205q81 0 127.5 31t46.5 92q0 47 -35.5 74.5t-97.5 27.5h-92v185h72q62 0 97.5 29.5t35.5 82.5t-39.5 83t-103.5 30q-149 0 -195 -174l-184 92q98 264 379 264q155 0 251.5 -74t96.5 -200q0 -84 -44.5 -144.5t-119.5 -80.5q85 -20 134.5 -76
t49.5 -150q0 -86 -56 -152.5t-146 -100t-197 -33.5q-158 0 -266.5 88.5t-133.5 228.5z" />
    <glyph glyph-name="uni0438" unicode="&#x438;" horiz-adv-x="1220" 
d="M131 0v971h215v-766l406 766h338v-971h-216v766l-405 -766h-338z" />
    <glyph glyph-name="uni0439" unicode="&#x439;" horiz-adv-x="1220" 
d="M131 0v971h215v-766l406 766h338v-971h-216v766l-405 -766h-338zM866 1360q0 -107 -71 -167t-185 -60t-185 60t-71 167q0 23 2 29h156l-2 -21q0 -39 28 -65.5t72 -26.5t72.5 26.5t28.5 65.5l-2 21h155q2 -6 2 -29z" />
    <glyph glyph-name="uni043A" unicode="&#x43a;" horiz-adv-x="995" 
d="M131 0v971h215v-357l307 357h277l-420 -459l440 -512h-276l-328 399v-399h-215z" />
    <glyph glyph-name="uni043B" unicode="&#x43b;" horiz-adv-x="1087" 
d="M45 0v33q61 116 90 254q33 138 33 389v295h788v-971h-215v776h-358v-49q0 -481 -123 -727h-215z" />
    <glyph glyph-name="uni043C" unicode="&#x43c;" horiz-adv-x="1486" 
d="M1356 971v-971h-215v788l-244 -788h-307l-244 788v-788h-215v971h369l243 -787l244 787h369z" />
    <glyph glyph-name="uni043D" unicode="&#x43d;" horiz-adv-x="1140" 
d="M346 971v-377h449v377h215v-971h-215v399h-449v-399h-215v971h215z" />
    <glyph glyph-name="uni043E" unicode="&#x43e;" horiz-adv-x="1146" 
d="M74 485q0 217 140.5 361.5t358.5 144.5t359 -144.5t141 -361.5t-141 -361t-359 -144t-358.5 144t-140.5 361zM858 485q0 136 -81 224t-204 88t-203.5 -88t-80.5 -224t80.5 -223.5t203.5 -87.5t204 87.5t81 223.5z" />
    <glyph glyph-name="uni043F" unicode="&#x43f;" horiz-adv-x="1122" 
d="M131 0v971h860v-971h-215v776h-430v-776h-215z" />
    <glyph glyph-name="uni0440" unicode="&#x440;" horiz-adv-x="1187" 
d="M131 971h207v-172q49 86 142.5 139t193.5 53q196 0 318 -143.5t122 -368.5q0 -223 -127 -361t-334 -138q-100 0 -182 39.5t-125 115.5v-541h-215v1377zM618 170q119 0 200 86t81 223t-82 227.5t-199 90.5q-111 0 -195.5 -90.5t-84.5 -227.5t83 -223t197 -86z" />
    <glyph glyph-name="uni0441" unicode="&#x441;" horiz-adv-x="1134" 
d="M586 164q130 0 204.5 74.5t92.5 201.5l194 -71q-36 -184 -165.5 -286.5t-315.5 -102.5q-236 0 -379 140.5t-143 371.5q0 143 67 258t179 178t245 63q181 0 305.5 -95.5t155.5 -260.5l-195 -62q-17 109 -88.5 171.5t-177.5 62.5q-73 0 -137 -35t-106.5 -108.5
t-42.5 -171.5q0 -144 92.5 -236t214.5 -92z" />
    <glyph glyph-name="uni0442" unicode="&#x442;" horiz-adv-x="886" 
d="M336 0v776h-307v195h829v-195h-307v-776h-215z" />
    <glyph glyph-name="uni0443" unicode="&#x443;" horiz-adv-x="1042" 
d="M793 971h225l-656 -1377h-225l260 549l-383 828h232l264 -594z" />
    <glyph glyph-name="uni0444" unicode="&#x444;" horiz-adv-x="1849" 
d="M817 -406v529q-54 -69 -133.5 -106t-171.5 -37q-192 0 -315 139.5t-123 363.5q0 232 120 370t308 138q103 0 183.5 -42t131.5 -118v603h215v-603q51 75 132 117.5t184 42.5q188 0 308 -138t120 -370q0 -224 -123.5 -363.5t-315.5 -139.5q-92 0 -171.5 37t-133.5 106v-529
h-215zM827 483q0 144 -79 229t-189 85q-125 0 -197.5 -84t-72.5 -230q0 -148 72 -230.5t198 -82.5q111 0 189.5 82.5t78.5 230.5zM1561 483q0 146 -73 230t-198 84q-110 0 -189 -85t-79 -229q0 -148 78.5 -230.5t189.5 -82.5q126 0 198.5 82.5t72.5 230.5z" />
    <glyph glyph-name="uni0445" unicode="&#x445;" horiz-adv-x="991" 
d="M926 971l-312 -455l353 -516h-246l-225 348l-226 -348h-245l354 516l-313 455h245l185 -285l184 285h246z" />
    <glyph glyph-name="uni0446" unicode="&#x446;" horiz-adv-x="1204" 
d="M950 -225v225h-819v971h215v-776h420v776h215v-776h164v-420h-195z" />
    <glyph glyph-name="uni0447" unicode="&#x447;" horiz-adv-x="1142" 
d="M797 526v445h215v-971h-215v360q-105 -133 -328 -133q-157 0 -247.5 96.5t-90.5 256.5v391h215v-330q0 -235 215 -235q72 0 128.5 28.5t107.5 91.5z" />
    <glyph glyph-name="uni0448" unicode="&#x448;" horiz-adv-x="1624" 
d="M131 0v971h215v-776h359v776h215v-776h358v776h215v-971h-1362z" />
    <glyph glyph-name="uni0449" unicode="&#x449;" horiz-adv-x="1716" 
d="M1462 -225v225h-1331v971h215v-776h359v776h215v-776h358v776h215v-776h164v-420h-195z" />
    <glyph glyph-name="uni044A" unicode="&#x44a;" horiz-adv-x="1204" 
d="M295 0v776h-266v195h481v-336h276q155 0 241.5 -86t86.5 -221t-89 -231.5t-239 -96.5h-491zM510 195h266q61 0 97 33t36 89t-36 89.5t-97 33.5h-266v-245z" />
    <glyph glyph-name="uni044B" unicode="&#x44b;" horiz-adv-x="1517" 
d="M131 0v971h215v-336h277q155 0 241 -86t86 -221t-88.5 -231.5t-238.5 -96.5h-492zM346 195h266q61 0 97 33t36 89t-36 89.5t-97 33.5h-266v-245zM1171 971h215v-971h-215v971z" />
    <glyph glyph-name="uni044C" unicode="&#x44c;" horiz-adv-x="1040" 
d="M131 0v971h215v-336h277q155 0 241 -86t86 -221t-88.5 -231.5t-238.5 -96.5h-492zM346 195h266q61 0 97 33t36 89t-36 89.5t-97 33.5h-266v-245z" />
    <glyph glyph-name="uni044D" unicode="&#x44d;" horiz-adv-x="1134" 
d="M1061 492q0 -231 -143 -371.5t-379 -140.5q-186 0 -316 102.5t-166 286.5l195 71q18 -127 92.5 -201.5t204.5 -74.5q111 0 192 62t105 173h-324v185h324q-24 106 -101.5 164.5t-175.5 58.5q-106 0 -177.5 -62.5t-88.5 -171.5l-194 62q38 168 162.5 262t308.5 94
q100 0 188 -36t153 -100t102.5 -158t37.5 -205z" />
    <glyph glyph-name="uni044E" unicode="&#x44e;" horiz-adv-x="1572" 
d="M1499 485q0 -217 -141 -361t-359 -144q-196 0 -330.5 117t-162.5 302h-160v-399h-215v971h215v-377h164q35 177 166 287t323 110q218 0 359 -144.5t141 -361.5zM1284 485q0 136 -81 224t-204 88t-203.5 -88t-80.5 -224t80.5 -223.5t203.5 -87.5t204 87.5t81 223.5z" />
    <glyph glyph-name="uni044F" unicode="&#x44f;" horiz-adv-x="1028" 
d="M57 20l297 359q-120 0 -203 87t-83 210q0 130 85.5 212.5t231.5 82.5h512v-971h-215v379h-82l-307 -379h-236v20zM682 563v213h-276q-59 0 -91 -29t-32 -77t32 -77.5t91 -29.5h276z" />
    <glyph glyph-name="uni0450" unicode="&#x450;" horiz-adv-x="1087" 
d="M842 369l184 -72q-52 -154 -165 -235.5t-283 -81.5q-226 0 -365 139.5t-139 372.5q0 213 131.5 356t341.5 143q193 0 315.5 -116.5t122.5 -311.5q0 -50 -10 -112h-686q0 -141 86 -215q90 -72 205 -72q104 0 171.5 52.5t90.5 152.5zM289 594h481l2 18q0 89 -63.5 142
t-163.5 53q-101 0 -172 -58t-84 -155zM444 1137l-247 239v33h276l176 -272h-205z" />
    <glyph glyph-name="uni0451" unicode="&#x451;" horiz-adv-x="1087" 
d="M842 369l184 -72q-52 -154 -165 -235.5t-283 -81.5q-226 0 -365 139.5t-139 372.5q0 213 131.5 356t341.5 143q193 0 315.5 -116.5t122.5 -311.5q0 -50 -10 -112h-686q0 -141 86 -215q90 -72 205 -72q104 0 171.5 52.5t90.5 152.5zM289 594h481l2 18q0 89 -63.5 142
t-163.5 53q-101 0 -172 -58t-84 -155zM250 1153v229h225v-229h-225zM618 1153v229h226v-229h-226z" />
    <glyph glyph-name="uni0452" unicode="&#x452;" horiz-adv-x="1159" 
d="M1028 639v-758q0 -143 -76 -225t-221 -82q-118 0 -201 63t-96 168l205 52q2 -42 25 -65t67 -23q39 0 60.5 25.5t21.5 72.5v711q0 115 -57 175t-166 60q-106 0 -175 -81.5t-69 -215.5v-516h-215v1135h-131v174h131v125h215v-125h297v-174h-297v-363q38 103 126.5 161
t209.5 58q158 0 252 -97.5t94 -254.5z" />
    <glyph glyph-name="uni0453" unicode="&#x453;" horiz-adv-x="847" 
d="M131 0v971h680v-205h-465v-766h-215zM369 1137l176 272h276v-33l-248 -239h-204z" />
    <glyph glyph-name="uni0454" unicode="&#x454;" horiz-adv-x="1134" 
d="M74 492q0 111 37.5 205t102.5 158t153 100t188 36q184 0 308.5 -94t162.5 -262l-195 -62q-17 109 -88.5 171.5t-177.5 62.5q-98 0 -175 -58.5t-101 -164.5h323v-185h-323q24 -111 105 -173t192 -62q130 0 204.5 74.5t92.5 201.5l194 -71q-36 -184 -165.5 -286.5
t-315.5 -102.5q-236 0 -379 140.5t-143 371.5z" />
    <glyph glyph-name="uni0455" unicode="&#x455;" horiz-adv-x="968" 
d="M59 246l174 92q38 -90 104 -132t167 -42q85 0 133.5 31t48.5 81q0 67 -50 100t-190 56q-333 54 -333 285q0 119 105.5 196.5t256.5 77.5q136 0 221.5 -53.5t134.5 -157.5l-163 -90q-44 129 -191 129q-72 0 -121 -31t-49 -75q0 -55 52 -80.5t194 -46.5q177 -26 257.5 -99
t80.5 -200q0 -134 -113.5 -220.5t-281.5 -86.5q-164 0 -275 70t-162 196z" />
    <glyph glyph-name="uni0456" unicode="&#x456;" horiz-adv-x="477" 
d="M131 971h215v-971h-215v971zM121 1137v235h235v-235h-235z" />
    <glyph glyph-name="uni0457" unicode="&#x457;" horiz-adv-x="477" 
d="M131 971h215v-971h-215v971zM-57 1153v229h225v-229h-225zM311 1153v229h226v-229h-226z" />
    <glyph glyph-name="uni0458" unicode="&#x458;" horiz-adv-x="477" 
d="M131 -406v1377h215v-1377h-215zM121 1137v235h235v-235h-235z" />
    <glyph glyph-name="uni0459" unicode="&#x459;" horiz-adv-x="1626" 
d="M45 0v33q61 116 90 254q33 138 33 389v295h764v-336h276q155 0 241.5 -86t86.5 -221t-89 -231.5t-239 -96.5h-491v776h-334v-49q0 -481 -123 -727h-215zM932 195h266q61 0 97 33t36 89t-36 89.5t-97 33.5h-266v-245z" />
    <glyph glyph-name="uni045A" unicode="&#x45a;" horiz-adv-x="1683" 
d="M131 0v971h215v-377h428v377h215v-377h277q151 0 239 -81t88 -216t-88 -216t-239 -81h-492v399h-428v-399h-215zM989 195h277q58 0 90.5 26.5t32.5 75.5t-32.5 75.5t-90.5 26.5h-277v-204z" />
    <glyph glyph-name="uni045B" unicode="&#x45b;" horiz-adv-x="1159" 
d="M346 0h-215v1434h215v-662q38 103 126.5 161t209.5 58q158 0 252 -97.5t94 -254.5v-639h-215v578q0 115 -57 175t-166 60q-106 0 -175 -81.5t-69 -215.5v-516zM0 1309h643v-174h-643v174z" />
    <glyph glyph-name="uni045C" unicode="&#x45c;" horiz-adv-x="995" 
d="M131 0v971h215v-357l307 357h277l-420 -459l440 -512h-276l-328 399v-399h-215zM393 1137l176 272h277v-33l-248 -239h-205z" />
    <glyph glyph-name="uni045D" unicode="&#x45d;" horiz-adv-x="1220" 
d="M131 0v971h215v-766l406 766h338v-971h-216v766l-405 -766h-338zM508 1137l-248 239v33h277l176 -272h-205z" />
    <glyph glyph-name="uni045E" unicode="&#x45e;" horiz-adv-x="1042" 
d="M793 971h225l-656 -1377h-225l260 549l-383 828h232l264 -594zM772 1360q0 -107 -71 -167t-185 -60t-185 60t-71 167q0 23 2 29h156l-2 -21q0 -39 28 -65.5t72 -26.5t72 26.5t28 65.5l-2 21h156q2 -6 2 -29z" />
    <glyph glyph-name="uni045F" unicode="&#x45f;" horiz-adv-x="1120" 
d="M463 -225v225h-332v971h215v-776h428v776h215v-971h-332v-225h-194z" />
    <glyph glyph-name="uni0462" unicode="&#x462;" horiz-adv-x="1570" 
d="M1477 422q0 -194 -132 -308t-339 -114h-719v1067h-283v184h283v183h225v-183h299v-184h-299v-223h494q207 0 339 -114t132 -308zM1241 422q0 91 -68.5 149t-177.5 58h-483v-414h483q109 0 177.5 58t68.5 149z" />
    <glyph glyph-name="uni0463" unicode="&#x463;" horiz-adv-x="1005" 
d="M915 393q0 -188 -124 -291q-126 -102 -322 -102h-334v1061h-258v194h258v179h215v-179h334v-194h-334v-275h119q197 0 322 -104q124 -100 124 -289zM680 393q0 92 -56 145.5t-159 53.5h-115v-397h115q103 0 159 53t56 145z" />
    <glyph glyph-name="uni0472" unicode="&#x472;" horiz-adv-x="1667" 
d="M1581 717q3 -148 -56 -285.5t-160 -237.5t-240.5 -158.5t-290.5 -55.5q-151 -3 -290.5 55.5t-240.5 158.5t-160.5 237.5t-56.5 285.5q-3 147 56.5 284.5t160.5 237.5t240.5 159t290.5 56q151 3 290.5 -56t240.5 -159t160 -237t56 -285zM332 829q109 74 243 74
q91 0 154.5 -22t144.5 -72q71 -43 113.5 -59.5t99.5 -16.5q166 0 246 103q-37 180 -176 292q-138 111 -323 111q-191 0 -328 -113q-137 -110 -174 -297zM1335 602q-104 -72 -241 -72q-95 0 -157.5 21.5t-150.5 75.5q-63 41 -104.5 57t-99.5 16q-158 0 -248 -106
q41 -186 176 -291q138 -108 324 -108q188 0 325 110q139 115 176 297z" />
    <glyph glyph-name="uni0473" unicode="&#x473;" horiz-adv-x="1146" 
d="M1073 481q0 -216 -140.5 -358.5t-359.5 -142.5q-218 0 -358.5 142t-140.5 359q0 142 63 258.5t177.5 184t258.5 67.5q218 0 359 -146.5t141 -363.5zM303 588q49 24 125 24q44 0 80 -11.5t98 -39.5q81 -43 133 -43q64 0 111 47q-23 105 -99 168.5t-178 63.5
q-98 0 -169.5 -56t-100.5 -153zM848 387q-52 -27 -129 -27q-43 0 -79 11.5t-99 40.5q-81 43 -133 43q-67 0 -113 -49q20 -106 96 -169t182 -63q100 0 174.5 57.5t100.5 155.5z" />
    <glyph glyph-name="uni0474" unicode="&#x474;" horiz-adv-x="1732" 
d="M610 0l-590 1434h254l492 -1252l422 1078q48 122 117.5 168.5t169.5 46.5q79 0 142.5 -45t98.5 -130l-172 -96q-5 25 -21 40.5t-40 15.5q-52 0 -80 -66l-481 -1194h-312z" />
    <glyph glyph-name="uni0475" unicode="&#x475;" horiz-adv-x="1171" 
d="M416 0l-379 971h225l277 -756l221 604q37 100 98 147.5t152 47.5q70 0 124.5 -35.5t86.5 -97.5l-144 -123q-15 45 -57 45q-49 0 -70 -62l-288 -741h-246z" />
    <glyph glyph-name="uni0490" unicode="&#x490;" horiz-adv-x="1269" 
d="M1008 1782h204v-563h-839v-1219h-226v1434h861v348z" />
    <glyph glyph-name="uni0491" unicode="&#x491;" horiz-adv-x="847" 
d="M596 1198h215v-432h-465v-766h-215v971h465v227z" />
    <glyph glyph-name="uni0492" unicode="&#x492;" horiz-adv-x="1359" 
d="M1262 1219h-840v-379h520v-205h-520v-635h-225v635h-164v205h164v594h1065v-215z" />
    <glyph glyph-name="uni0493" unicode="&#x493;" horiz-adv-x="874" 
d="M842 766h-461v-203h244v-172h-244v-391h-215v391h-137v172h137v408h676v-205z" />
    <glyph glyph-name="uni0496" unicode="&#x496;" horiz-adv-x="2166" 
d="M1411 748l727 -748h-317l-625 649v-649h-225v649l-625 -649h-317l727 748l-686 686h297l604 -607v607h225v-607l604 607h297zM1937 -225v430h205v-430h-205z" />
    <glyph glyph-name="uni0497" unicode="&#x497;" horiz-adv-x="1513" 
d="M45 0l440 512l-419 459h276l307 -357v357h215v-357l307 357h277l-420 -459l440 -512h-276l-328 399v-399h-215v399l-327 -399h-277zM1327 -225v389h184v-389h-184z" />
    <glyph glyph-name="uni0498" unicode="&#x498;" horiz-adv-x="1210" 
d="M82 430l215 82q8 -144 90.5 -230.5t226.5 -86.5q131 0 204 51.5t73 152.5q0 103 -62.5 159t-173.5 56h-92v215h82q225 0 225 199q0 98 -71.5 154.5t-194.5 56.5q-110 0 -181.5 -63t-94.5 -183l-205 92q42 172 168.5 270.5t322.5 98.5q217 0 349 -111q133 -109 133 -299
q0 -123 -58.5 -204.5t-167.5 -112.5q112 -26 179 -110.5t67 -217.5q0 -200 -141 -311q-141 -108 -371 -108q-115 0 -210 35.5t-158.5 97.5t-102 142.5t-51.5 174.5zM557 -104q40 43 98 43q70 0 115 -43t45 -115q0 -77 -47.5 -121.5t-126.5 -44.5q-74 0 -123 34.5t-61 100.5
l108 27q5 -27 24 -43.5t48 -16.5q32 0 51 17.5t19 46.5t-19 47t-51 18q-48 0 -70 -36l-106 20q18 65 41 203h114q-30 -87 -59 -137z" />
    <glyph glyph-name="uni0499" unicode="&#x499;" horiz-adv-x="937" 
d="M61 297l185 82q37 -205 235 -205q81 0 127.5 31t46.5 92q0 47 -35.5 74.5t-97.5 27.5h-92v185h72q62 0 97.5 29.5t35.5 82.5t-39.5 83t-103.5 30q-149 0 -195 -174l-184 92q98 264 379 264q155 0 251.5 -74t96.5 -200q0 -84 -44.5 -144.5t-119.5 -80.5q85 -20 134.5 -76
t49.5 -150q0 -86 -56 -152.5t-146 -100t-197 -33.5q-158 0 -266.5 88.5t-133.5 228.5zM432 -104q40 43 98 43q70 0 115 -43t45 -115q0 -77 -47.5 -121.5t-126.5 -44.5q-74 0 -123 34.5t-61 100.5l108 27q5 -27 24 -43.5t48 -16.5q32 0 51 17.5t19 46.5t-19 47t-51 18
q-48 0 -70 -36l-106 20q18 65 41 203h115q-28 -83 -60 -137z" />
    <glyph glyph-name="uni049A" unicode="&#x49a;" horiz-adv-x="1343" 
d="M147 0v1434h226v-607l604 607h297l-686 -686l727 -748h-318l-624 649v-649h-226zM1114 -225v430h205v-430h-205z" />
    <glyph glyph-name="uni049B" unicode="&#x49b;" horiz-adv-x="995" 
d="M131 0v971h215v-357l307 357h277l-420 -459l440 -512h-276l-328 399v-399h-215zM809 -225v389h184v-389h-184z" />
    <glyph glyph-name="uni04A0" unicode="&#x4a0;" horiz-adv-x="1685" 
d="M930 748l727 -748h-318l-624 649v-649h-226v1239h-432v195h658v-607l604 607h297z" />
    <glyph glyph-name="uni04A1" unicode="&#x4a1;" horiz-adv-x="1146" 
d="M662 512l440 -512h-277l-327 399v-399h-215v797h-263v174h478v-357l307 357h276z" />
    <glyph glyph-name="uni04A2" unicode="&#x4a2;" horiz-adv-x="1523" 
d="M1151 604h-778v-604h-226v1434h226v-625h778v625h225v-1434h-225v604zM1352 -225v430h204v-430h-204z" />
    <glyph glyph-name="uni04A3" unicode="&#x4a3;" horiz-adv-x="1214" 
d="M346 971v-377h449v377h215v-971h-215v399h-449v-399h-215v971h215zM1001 -225v389h185v-389h-185z" />
    <glyph glyph-name="uni04AA" unicode="&#x4aa;" horiz-adv-x="1605" 
d="M322 717q0 -247 135 -390t356 -143q224 0 356 129t166 322l205 -82q-57 -257 -248.5 -415t-478.5 -158q-211 -3 -379 94.5t-259 266.5t-89 376q-3 152 53.5 289.5t153.5 236.5t233.5 156.5t286.5 54.5q133 0 245 -38.5t190.5 -105.5t131.5 -152.5t78 -184.5l-205 -92
q-33 167 -147.5 267.5t-292.5 100.5q-213 0 -352 -147t-139 -385zM760 -104q40 43 98 43q70 0 115 -43t45 -115q0 -77 -47.5 -121.5t-126.5 -44.5q-74 0 -123.5 34.5t-61.5 100.5l109 27q5 -27 24 -43.5t48 -16.5q32 0 50.5 17.5t18.5 46.5q0 30 -18.5 47.5t-50.5 17.5
q-48 0 -70 -36l-106 20q18 65 41 203h114q-30 -87 -59 -137z" />
    <glyph glyph-name="uni04AB" unicode="&#x4ab;" horiz-adv-x="1134" 
d="M586 164q130 0 204.5 74.5t92.5 201.5l194 -71q-36 -184 -165.5 -286.5t-315.5 -102.5q-236 0 -379 140.5t-143 371.5q0 143 67 258t179 178t245 63q181 0 305.5 -95.5t155.5 -260.5l-195 -62q-17 109 -88.5 171.5t-177.5 62.5q-73 0 -137 -35t-106.5 -108.5
t-42.5 -171.5q0 -144 92.5 -236t214.5 -92zM528 -104q40 43 99 43q70 0 114.5 -43t44.5 -115q0 -77 -47.5 -121.5t-126.5 -44.5q-74 0 -123 34.5t-61 100.5l109 27q5 -27 23.5 -43.5t47.5 -16.5q32 0 51 17.5t19 46.5t-19 47t-51 18q-47 0 -69 -36l-107 20q18 65 41 203h115
q-28 -83 -60 -137z" />
    <glyph glyph-name="uni04AE" unicode="&#x4ae;" horiz-adv-x="1421" 
d="M301 1434l410 -652l430 652h256l-574 -850v-584h-225v584l-573 850h276z" />
    <glyph glyph-name="uni04AF" unicode="&#x4af;" horiz-adv-x="1077" 
d="M432 -406v406l-395 971h225l277 -727l276 727h225l-393 -971v-406h-215z" />
    <glyph glyph-name="uni04B0" unicode="&#x4b0;" horiz-adv-x="1421" 
d="M1397 1434l-457 -676h225v-174h-342v-584h-225v584h-342v174h225l-456 676h276l410 -652l430 652h256z" />
    <glyph glyph-name="uni04B1" unicode="&#x4b1;" horiz-adv-x="1077" 
d="M1040 971l-360 -889h180v-164h-213v-324h-215v324h-213v164h180l-362 889h225l277 -727l276 727h225z" />
    <glyph glyph-name="uni04B2" unicode="&#x4b2;" horiz-adv-x="1417" 
d="M33 0l542 778l-460 656h276l318 -482l317 482h277l-461 -656l542 -778h-276l-399 594l-400 -594h-276zM1229 -225v430h205v-430h-205z" />
    <glyph glyph-name="uni04B3" unicode="&#x4b3;" horiz-adv-x="991" 
d="M926 971l-312 -455l353 -516h-246l-225 348l-226 -348h-245l354 516l-313 455h245l185 -285l184 285h246zM811 -225v389h184v-389h-184z" />
    <glyph glyph-name="uni04B6" unicode="&#x4b6;" horiz-adv-x="1417" 
d="M1044 0v481q-70 -73 -177 -115t-234 -42q-157 0 -272 68.5t-172.5 184t-57.5 263.5v594h225v-557q0 -160 87.5 -249t240.5 -89q102 0 187 45t173 145v705h226v-1434h-226zM1270 -225v430h205v-430h-205z" />
    <glyph glyph-name="uni04B7" unicode="&#x4b7;" horiz-adv-x="1224" 
d="M797 526v445h215v-971h-215v360q-105 -133 -328 -133q-157 0 -247.5 96.5t-90.5 256.5v391h215v-330q0 -235 215 -235q72 0 128.5 28.5t107.5 91.5zM1012 -225v389h184v-389h-184z" />
    <glyph glyph-name="uni04BA" unicode="&#x4ba;" horiz-adv-x="1417" 
d="M147 0v1434h226v-482q71 74 178 116t233 42q157 0 272 -68.5t172.5 -184t57.5 -263.5v-594h-225v557q0 160 -87.5 249t-240.5 89q-102 0 -187 -45t-173 -145v-705h-226z" />
    <glyph glyph-name="uni04BB" unicode="&#x4bb;" horiz-adv-x="1159" 
d="M346 0h-215v1434h215v-662q38 103 126.5 161t209.5 58q158 0 252 -97.5t94 -254.5v-639h-215v578q0 115 -57 175t-166 60q-106 0 -175 -81.5t-69 -215.5v-516z" />
    <glyph glyph-name="uni04C0" unicode="&#x4c0;" horiz-adv-x="520" 
d="M147 0v1434h226v-1434h-226z" />
    <glyph glyph-name="uni04C1" unicode="&#x4c1;" horiz-adv-x="2166" 
d="M1411 748l727 -748h-317l-625 649v-649h-225v649l-625 -649h-317l727 748l-686 686h297l604 -607v607h225v-607l604 607h297zM1339 1823q0 -107 -71 -167.5t-185 -60.5t-185 60.5t-71 167.5q0 22 2 28h156l-2 -20q0 -39 28 -65.5t72 -26.5t72.5 26.5t28.5 65.5l-2 20h155
q2 -6 2 -28z" />
    <glyph glyph-name="uni04C2" unicode="&#x4c2;" horiz-adv-x="1513" 
d="M45 0l440 512l-419 459h276l307 -357v357h215v-357l307 357h277l-420 -459l440 -512h-276l-328 399v-399h-215v399l-327 -399h-277zM1014 1360q0 -107 -71 -167t-185 -60t-185 60t-71 167q0 23 2 29h155l-2 -21q0 -39 28.5 -65.5t72.5 -26.5t72 26.5t28 65.5l-2 21h156
q2 -6 2 -29z" />
    <glyph glyph-name="uni04CF" unicode="&#x4cf;" horiz-adv-x="477" 
d="M131 0v1434h215v-1434h-215z" />
    <glyph glyph-name="uni04D0" unicode="&#x4d0;" horiz-adv-x="1540" 
d="M25 0l589 1434h312l590 -1434h-254l-138 348h-708l-137 -348h-254zM496 553h548l-274 694zM1026 1823q0 -107 -71 -167.5t-185 -60.5t-185 60.5t-71 167.5q0 22 2 28h156l-2 -20q0 -39 28 -65.5t72 -26.5t72 26.5t28 65.5l-2 20h156q2 -6 2 -28z" />
    <glyph glyph-name="uni04D1" unicode="&#x4d1;" horiz-adv-x="1073" 
d="M92 276q0 153 101.5 232.5t269.5 79.5q89 0 172 -21l102 -24v71q0 95 -63 149t-162 54q-95 0 -156.5 -51.5t-79.5 -140.5l-194 51q33 146 144 230.5t286 84.5q207 0 318.5 -101t111.5 -286v-604h-205v164q-33 -85 -116.5 -134.5t-208.5 -49.5q-127 0 -223.5 81.5
t-96.5 214.5zM737 369v10l-78 20q-105 27 -161 27q-84 0 -132.5 -32.5t-48.5 -96.5q0 -60 46 -96.5t135 -36.5q107 0 173 55t66 150zM768 1360q0 -107 -71 -167t-185 -60t-185 60t-71 167q0 23 2 29h156l-2 -21q0 -39 28 -65.5t72 -26.5t72 26.5t28 65.5l-2 21h156
q2 -6 2 -29z" />
    <glyph glyph-name="uni04D2" unicode="&#x4d2;" horiz-adv-x="1540" 
d="M25 0l589 1434h312l590 -1434h-254l-138 348h-708l-137 -348h-254zM496 553h548l-274 694zM473 1616v229h225v-229h-225zM842 1616v229h225v-229h-225z" />
    <glyph glyph-name="uni04D3" unicode="&#x4d3;" horiz-adv-x="1073" 
d="M92 276q0 153 101.5 232.5t269.5 79.5q89 0 172 -21l102 -24v71q0 95 -63 149t-162 54q-95 0 -156.5 -51.5t-79.5 -140.5l-194 51q33 146 144 230.5t286 84.5q207 0 318.5 -101t111.5 -286v-604h-205v164q-33 -85 -116.5 -134.5t-208.5 -49.5q-127 0 -223.5 81.5
t-96.5 214.5zM737 369v10l-78 20q-105 27 -161 27q-84 0 -132.5 -32.5t-48.5 -96.5q0 -60 46 -96.5t135 -36.5q107 0 173 55t66 150zM215 1153v229h225v-229h-225zM584 1153v229h225v-229h-225z" />
    <glyph glyph-name="uni04D4" unicode="&#x4d4;" horiz-adv-x="1988" 
d="M1147 215h739v-215h-964v348h-459l-184 -348h-254l761 1434h1080v-215h-719v-369h657v-215h-657v-420zM922 553v666l-353 -666h353z" />
    <glyph glyph-name="uni04D5" unicode="&#x4d5;" horiz-adv-x="1746" 
d="M92 287q0 151 97.5 229t267.5 78h278v20q0 95 -64.5 149t-170.5 54q-98 0 -159 -47t-75 -129l-184 51q74 299 420 299q126 0 220 -42t144 -118q54 74 145 117t195 43q194 0 316.5 -116.5t122.5 -311.5q0 -44 -11 -112h-686q0 -138 86 -214.5t205 -76.5q104 0 171.5 54.5
t90.5 154.5l185 -72q-52 -154 -165.5 -235.5t-283.5 -81.5q-139 0 -245.5 60.5t-149.5 160.5q-135 -221 -414 -221q-147 0 -241.5 88.5t-94.5 218.5zM948 594h482l2 18q0 89 -64 142t-164 53q-101 0 -172 -58t-84 -155zM735 379v59h-229q-89 0 -142 -37.5t-53 -105.5
q0 -62 43 -96.5t121 -34.5q117 0 188.5 58.5t71.5 156.5z" />
    <glyph glyph-name="uni04D6" unicode="&#x4d6;" horiz-adv-x="1314" 
d="M147 1434h1045v-215h-819v-369h757v-215h-757v-420h839v-215h-1065v1434zM895 1823q0 -107 -71 -167.5t-185 -60.5t-185 60.5t-71 167.5q0 22 2 28h156l-2 -20q0 -39 28 -65.5t72 -26.5t72 26.5t28 65.5l-2 20h156q2 -6 2 -28z" />
    <glyph glyph-name="uni04D7" unicode="&#x4d7;" horiz-adv-x="1087" 
d="M842 369l184 -72q-52 -154 -165 -235.5t-283 -81.5q-226 0 -365 139.5t-139 372.5q0 213 131.5 356t341.5 143q193 0 315.5 -116.5t122.5 -311.5q0 -50 -10 -112h-686q0 -141 86 -215q90 -72 205 -72q104 0 171.5 52.5t90.5 152.5zM289 594h481l2 18q0 89 -63.5 142
t-163.5 53q-101 0 -172 -58t-84 -155zM803 1360q0 -107 -71 -167t-185 -60t-185 60t-71 167q0 23 2 29h156l-3 -21q0 -39 28.5 -65.5t72.5 -26.5t72 26.5t28 65.5l-2 21h156q2 -6 2 -29z" />
    <glyph glyph-name="uni04D8" unicode="&#x4d8;" horiz-adv-x="1482" 
d="M1397 717q1 -153 -48.5 -289t-139 -235.5t-220 -157t-282.5 -55.5q-183 0 -328 76.5t-228 219t-83 326.5q0 82 16 164h1085q-13 224 -145 348.5t-346 124.5q-142 0 -245 -79.5t-154 -213.5l-213 84q64 185 223 305q158 119 393 119q325 0 520 -200.5t195 -536.5z
M1155 561h-833l-1 -5q-1 -4 -2.5 -11t-1.5 -13q0 -141 112.5 -239t281.5 -98q172 0 289.5 97t154.5 269z" />
    <glyph glyph-name="uni04D9" unicode="&#x4d9;" horiz-adv-x="1087" 
d="M246 602l-185 72q52 154 165.5 235.5t283.5 81.5q226 0 365 -139.5t139 -372.5q0 -213 -131.5 -356t-341.5 -143q-194 0 -316.5 116.5t-122.5 311.5q0 44 11 112h686q0 143 -88 213q-86 74 -203 74q-104 0 -171.5 -52.5t-90.5 -152.5zM799 377h-482l-2 -19
q0 -89 64 -141.5t164 -52.5q101 0 172 58t84 155z" />
    <glyph glyph-name="uni04DA" unicode="&#x4da;" horiz-adv-x="1482" 
d="M1397 717q1 -153 -48.5 -289t-139 -235.5t-220 -157t-282.5 -55.5q-183 0 -328 76.5t-228 219t-83 326.5q0 82 16 164h1085q-13 224 -145 348.5t-346 124.5q-142 0 -245 -79.5t-154 -213.5l-213 84q64 185 223 305q158 119 393 119q325 0 520 -200.5t195 -536.5z
M1155 561h-833l-1 -5q-1 -4 -2.5 -11t-1.5 -13q0 -141 112.5 -239t281.5 -98q172 0 289.5 97t154.5 269zM385 1616v229h225v-229h-225zM754 1616v229h225v-229h-225z" />
    <glyph glyph-name="uni04DB" unicode="&#x4db;" horiz-adv-x="1087" 
d="M246 602l-185 72q52 154 165.5 235.5t283.5 81.5q226 0 365 -139.5t139 -372.5q0 -213 -131.5 -356t-341.5 -143q-194 0 -316.5 116.5t-122.5 311.5q0 44 11 112h686q0 143 -88 213q-86 74 -203 74q-104 0 -171.5 -52.5t-90.5 -152.5zM799 377h-482l-2 -19
q0 -89 64 -141.5t164 -52.5q101 0 172 58t84 155zM238 1153v229h225v-229h-225zM606 1153v229h225v-229h-225z" />
    <glyph glyph-name="uni04DC" unicode="&#x4dc;" horiz-adv-x="2166" 
d="M1411 748l727 -748h-317l-625 649v-649h-225v649l-625 -649h-317l727 748l-686 686h297l604 -607v607h225v-607l604 607h297zM786 1616v229h226v-229h-226zM1155 1616v229h225v-229h-225z" />
    <glyph glyph-name="uni04DD" unicode="&#x4dd;" horiz-adv-x="1513" 
d="M45 0l440 512l-419 459h276l307 -357v357h215v-357l307 357h277l-420 -459l440 -512h-276l-328 399v-399h-215v399l-327 -399h-277zM461 1153v229h225v-229h-225zM829 1153v229h226v-229h-226z" />
    <glyph glyph-name="uni04DE" unicode="&#x4de;" horiz-adv-x="1210" 
d="M82 430l215 82q8 -144 90.5 -230.5t226.5 -86.5q131 0 204 51.5t73 152.5q0 103 -62.5 159t-173.5 56h-92v215h82q225 0 225 199q0 98 -71.5 154.5t-194.5 56.5q-110 0 -181.5 -63t-94.5 -183l-205 92q42 172 168.5 270.5t322.5 98.5q217 0 349 -111q133 -109 133 -299
q0 -123 -58.5 -204.5t-167.5 -112.5q112 -26 179 -110.5t67 -217.5q0 -200 -141 -311q-141 -108 -371 -108q-115 0 -210 35.5t-158.5 97.5t-102 142.5t-51.5 174.5zM317 1616v229h226v-229h-226zM686 1616v229h225v-229h-225z" />
    <glyph glyph-name="uni04DF" unicode="&#x4df;" horiz-adv-x="937" 
d="M61 297l185 82q37 -205 235 -205q81 0 127.5 31t46.5 92q0 47 -35.5 74.5t-97.5 27.5h-92v185h72q62 0 97.5 29.5t35.5 82.5t-39.5 83t-103.5 30q-149 0 -195 -174l-184 92q98 264 379 264q155 0 251.5 -74t96.5 -200q0 -84 -44.5 -144.5t-119.5 -80.5q85 -20 134.5 -76
t49.5 -150q0 -86 -56 -152.5t-146 -100t-197 -33.5q-158 0 -266.5 88.5t-133.5 228.5zM193 1153v229h225v-229h-225zM561 1153v229h225v-229h-225z" />
    <glyph glyph-name="uni04E2" unicode="&#x4e2;" horiz-adv-x="1579" 
d="M1206 1270l-667 -1270h-392v1434h226v-1272l667 1272h392v-1434h-226v1270zM500 1802h532v-160h-532v160z" />
    <glyph glyph-name="uni04E3" unicode="&#x4e3;" horiz-adv-x="1220" 
d="M131 0v971h215v-766l406 766h338v-971h-216v766l-405 -766h-338zM344 1339h533v-159h-533v159z" />
    <glyph glyph-name="uni04E4" unicode="&#x4e4;" horiz-adv-x="1579" 
d="M1206 1270l-667 -1270h-392v1434h226v-1272l667 1272h392v-1434h-226v1270zM469 1616v229h225v-229h-225zM838 1616v229h225v-229h-225z" />
    <glyph glyph-name="uni04E5" unicode="&#x4e5;" horiz-adv-x="1220" 
d="M131 0v971h215v-766l406 766h338v-971h-216v766l-405 -766h-338zM313 1153v229h226v-229h-226zM682 1153v229h225v-229h-225z" />
    <glyph glyph-name="uni04E6" unicode="&#x4e6;" horiz-adv-x="1667" 
d="M834 1454q151 3 290.5 -56t240.5 -159t160 -237t56 -285q3 -148 -56 -285.5t-160 -237.5t-240.5 -158.5t-290.5 -55.5q-151 -3 -290.5 55.5t-240.5 158.5t-160.5 237.5t-56.5 285.5q-3 147 56.5 284.5t160.5 237.5t240.5 159t290.5 56zM834 195q141 0 257.5 65.5
t185.5 185.5t69 271q0 229 -146.5 375.5t-365.5 146.5t-365.5 -148t-146.5 -376q0 -229 148 -374.5t364 -145.5zM528 1616v229h226v-229h-226zM897 1616v229h225v-229h-225z" />
    <glyph glyph-name="uni04E7" unicode="&#x4e7;" horiz-adv-x="1146" 
d="M74 485q0 217 140.5 361.5t358.5 144.5t359 -144.5t141 -361.5t-141 -361t-359 -144t-358.5 144t-140.5 361zM858 485q0 136 -81 224t-204 88t-203.5 -88t-80.5 -224t80.5 -223.5t203.5 -87.5t204 87.5t81 223.5zM276 1153v229h226v-229h-226zM645 1153v229h225v-229
h-225z" />
    <glyph glyph-name="uni04E8" unicode="&#x4e8;" horiz-adv-x="1667" 
d="M86 717q-3 147 56.5 284.5t160.5 237.5t240.5 159t290.5 56q151 3 290.5 -56t240.5 -159t160 -237t56 -285q3 -148 -56 -285.5t-160 -237.5t-240.5 -158.5t-290.5 -55.5q-151 -3 -290.5 55.5t-240.5 158.5t-160.5 237.5t-56.5 285.5zM330 813h1007q-31 192 -170.5 309
t-332.5 117t-333 -118t-171 -308zM1337 618h-1007q30 -190 171.5 -306.5t332.5 -116.5t332 116.5t171 306.5z" />
    <glyph glyph-name="uni04E9" unicode="&#x4e9;" horiz-adv-x="1146" 
d="M74 485q0 217 140.5 361.5t358.5 144.5t359 -144.5t141 -361.5t-141 -361t-359 -144t-358.5 144t-140.5 361zM297 561h553q-20 106 -96.5 171t-180.5 65t-180 -65t-96 -171zM850 410h-553q20 -106 96 -171t180 -65t180.5 65t96.5 171z" />
    <glyph glyph-name="uni04EA" unicode="&#x4ea;" horiz-adv-x="1667" 
d="M86 717q-3 147 56.5 284.5t160.5 237.5t240.5 159t290.5 56q151 3 290.5 -56t240.5 -159t160 -237t56 -285q3 -148 -56 -285.5t-160 -237.5t-240.5 -158.5t-290.5 -55.5q-151 -3 -290.5 55.5t-240.5 158.5t-160.5 237.5t-56.5 285.5zM330 813h1007q-31 192 -170.5 309
t-332.5 117t-333 -118t-171 -308zM1337 618h-1007q30 -190 171.5 -306.5t332.5 -116.5t332 116.5t171 306.5zM537 1616v229h225v-229h-225zM905 1616v229h225v-229h-225z" />
    <glyph glyph-name="uni04EB" unicode="&#x4eb;" horiz-adv-x="1146" 
d="M74 485q0 217 140.5 361.5t358.5 144.5t359 -144.5t141 -361.5t-141 -361t-359 -144t-358.5 144t-140.5 361zM297 561h553q-20 106 -96.5 171t-180.5 65t-180 -65t-96 -171zM850 410h-553q20 -106 96 -171t180 -65t180.5 65t96.5 171zM276 1153v229h226v-229h-226z
M645 1153v229h225v-229h-225z" />
    <glyph glyph-name="uni04EC" unicode="&#x4ec;" horiz-adv-x="1605" 
d="M66 553l204 82q34 -193 166 -322t357 -129q198 0 332 114.5t163 315.5h-639v215h639q-33 190 -171.5 305t-323.5 115q-178 0 -293 -100.5t-148 -267.5l-205 92q55 204 222 342q168 139 438 139q149 3 282 -53t228.5 -154.5t150 -236.5t52.5 -293q2 -209 -86.5 -377.5
t-256.5 -265.5t-384 -94q-289 0 -479.5 157t-247.5 416zM510 1616v229h225v-229h-225zM879 1616v229h225v-229h-225z" />
    <glyph glyph-name="uni04ED" unicode="&#x4ed;" horiz-adv-x="1134" 
d="M1061 492q0 -231 -143 -371.5t-379 -140.5q-186 0 -316 102.5t-166 286.5l195 71q18 -127 92.5 -201.5t204.5 -74.5q111 0 192 62t105 173h-324v185h324q-24 106 -101.5 164.5t-175.5 58.5q-106 0 -177.5 -62.5t-88.5 -171.5l-194 62q38 168 162.5 262t308.5 94
q100 0 188 -36t153 -100t102.5 -158t37.5 -205zM264 1153v229h225v-229h-225zM633 1153v229h225v-229h-225z" />
    <glyph glyph-name="uni04EE" unicode="&#x4ee;" horiz-adv-x="1439" 
d="M236 0l358 543l-565 891h270l422 -686l426 686h264l-901 -1434h-274zM457 1802h532v-160h-532v160z" />
    <glyph glyph-name="uni04EF" unicode="&#x4ef;" horiz-adv-x="1042" 
d="M793 971h225l-656 -1377h-225l260 549l-383 828h232l264 -594zM250 1339h532v-159h-532v159z" />
    <glyph glyph-name="uni04F0" unicode="&#x4f0;" horiz-adv-x="1439" 
d="M236 0l358 543l-565 891h270l422 -686l426 686h264l-901 -1434h-274zM426 1616v229h225v-229h-225zM795 1616v229h225v-229h-225z" />
    <glyph glyph-name="uni04F1" unicode="&#x4f1;" horiz-adv-x="1042" 
d="M793 971h225l-656 -1377h-225l260 549l-383 828h232l264 -594zM219 1153v229h225v-229h-225zM588 1153v229h225v-229h-225z" />
    <glyph glyph-name="uni04F2" unicode="&#x4f2;" horiz-adv-x="1439" 
d="M236 0l358 543l-565 891h270l422 -686l426 686h264l-901 -1434h-274zM424 1599l176 273h277v-33l-248 -240h-205zM819 1599l176 273h277v-33l-248 -240h-205z" />
    <glyph glyph-name="uni04F3" unicode="&#x4f3;" horiz-adv-x="1042" 
d="M793 971h225l-656 -1377h-225l260 549l-383 828h232l264 -594zM217 1137l176 272h277v-33l-248 -239h-205zM612 1137l176 272h277v-33l-248 -239h-205z" />
    <glyph glyph-name="uni04F4" unicode="&#x4f4;" horiz-adv-x="1417" 
d="M1044 0v481q-70 -73 -177 -115t-234 -42q-157 0 -272 68.5t-172.5 184t-57.5 263.5v594h225v-557q0 -160 87.5 -249t240.5 -89q102 0 187 45t173 145v705h226v-1434h-226zM403 1616v229h226v-229h-226zM772 1616v229h225v-229h-225z" />
    <glyph glyph-name="uni04F5" unicode="&#x4f5;" horiz-adv-x="1142" 
d="M797 526v445h215v-971h-215v360q-105 -133 -328 -133q-157 0 -247.5 96.5t-90.5 256.5v391h215v-330q0 -235 215 -235q72 0 128.5 28.5t107.5 91.5zM274 1153v229h226v-229h-226zM643 1153v229h225v-229h-225z" />
    <glyph glyph-name="uni04F8" unicode="&#x4f8;" horiz-adv-x="1951" 
d="M147 0v1434h226v-590h493q207 0 339 -114t132 -308t-132 -308t-339 -114h-719zM373 215h483q109 0 177.5 58t68.5 149t-68.5 149t-177.5 58h-483v-414zM1579 0v1434h225v-1434h-225zM639 1616v229h225v-229h-225zM1008 1616v229h225v-229h-225z" />
    <glyph glyph-name="uni04F9" unicode="&#x4f9;" horiz-adv-x="1517" 
d="M131 0v971h215v-336h277q155 0 241 -86t86 -221t-88.5 -231.5t-238.5 -96.5h-492zM346 195h266q61 0 97 33t36 89t-36 89.5t-97 33.5h-266v-245zM1171 971h215v-971h-215v971zM463 1153v229h225v-229h-225zM831 1153v229h226v-229h-226z" />
    <glyph glyph-name="uni0527" unicode="&#x527;" horiz-adv-x="1241" 
d="M346 0h-215v1434h215v-662q38 103 126.5 161t209.5 58q158 0 252 -97.5t94 -254.5v-639h-215v578q0 115 -57 175t-166 60q-106 0 -175 -81.5t-69 -215.5v-516zM1028 -225v389h184v-389h-184z" />
    <glyph glyph-name="uni0E3F" unicode="&#xe3f;" horiz-adv-x="1419" 
d="M1325 389q0 -173 -133.5 -281t-337.5 -108h-61v-201h-195v201h-451v1434h451v200h195v-200h20q206 0 333.5 -106t127.5 -273q0 -106 -58 -188.5t-167 -129.5q132 -33 204 -121.5t72 -226.5zM362 1229v-389h236v389h-236zM813 1229h-20v-389h20q121 0 183.5 50t62.5 144
q0 95 -65.5 145t-180.5 50zM362 205h236v430h-236v-430zM1100 430q0 90 -65.5 147.5t-180.5 57.5h-61v-430h61q114 0 180 62t66 163z" />
    <glyph glyph-name="Wgrave" unicode="&#x1e80;" horiz-adv-x="2056" 
d="M362 0l-337 1434h235l287 -1276l287 1276h389l286 -1276l287 1276h236l-338 -1434h-369l-297 1284l-297 -1284h-369zM926 1599l-248 240v33h276l176 -273h-204z" />
    <glyph glyph-name="wgrave" unicode="&#x1e81;" horiz-adv-x="1540" 
d="M248 971l205 -756l194 756h246l194 -756l205 756h215l-286 -971h-256l-195 682l-195 -682h-256l-286 971h215zM668 1137l-248 239v33h276l176 -272h-204z" />
    <glyph glyph-name="Wacute" unicode="&#x1e82;" horiz-adv-x="2056" 
d="M362 0l-337 1434h235l287 -1276l287 1276h389l286 -1276l287 1276h236l-338 -1434h-369l-297 1284l-297 -1284h-369zM926 1599l176 273h276v-33l-248 -240h-204z" />
    <glyph glyph-name="wacute" unicode="&#x1e83;" horiz-adv-x="1540" 
d="M248 971l205 -756l194 756h246l194 -756l205 756h215l-286 -971h-256l-195 682l-195 -682h-256l-286 971h215zM668 1137l176 272h276v-33l-248 -239h-204z" />
    <glyph glyph-name="Wdieresis" unicode="&#x1e84;" horiz-adv-x="2056" 
d="M362 0l-337 1434h235l287 -1276l287 1276h389l286 -1276l287 1276h236l-338 -1434h-369l-297 1284l-297 -1284h-369zM731 1616v229h225v-229h-225zM1100 1616v229h225v-229h-225z" />
    <glyph glyph-name="wdieresis" unicode="&#x1e85;" horiz-adv-x="1540" 
d="M248 971l205 -756l194 756h246l194 -756l205 756h215l-286 -971h-256l-195 682l-195 -682h-256l-286 971h215zM473 1153v229h225v-229h-225zM842 1153v229h225v-229h-225z" />
    <glyph glyph-name="uni1E9E" unicode="&#x1e9e;" horiz-adv-x="1439" 
d="M422 236l201 114q26 -73 89 -113t148 -40q102 0 181 73t79 187q0 113 -77.5 180.5t-182.5 67.5q-62 0 -119 -26.5t-90 -68.5l-153 138l454 471h-258q-184 0 -261 -76.5t-77 -261.5v-881h-225v881q0 291 132.5 422t428.5 131h549v-215l-356 -361q27 8 82 8
q159 0 269 -113.5t110 -295.5q0 -211 -137 -343t-349 -132q-159 0 -271 66.5t-167 187.5z" />
    <glyph glyph-name="Ygrave" unicode="&#x1ef2;" horiz-adv-x="1421" 
d="M301 1434l410 -652l430 652h256l-574 -850v-584h-225v584l-573 850h276zM608 1599l-248 240v33h277l176 -273h-205z" />
    <glyph glyph-name="ygrave" unicode="&#x1ef3;" horiz-adv-x="1042" 
d="M793 971h225l-656 -1377h-225l260 549l-383 828h232l264 -594zM414 1137l-248 239v33h276l176 -272h-204z" />
    <glyph glyph-name="endash" unicode="&#x2013;" horiz-adv-x="1323" 
d="M98 614h1127v-194h-1127v194z" />
    <glyph glyph-name="emdash" unicode="&#x2014;" horiz-adv-x="1835" 
d="M98 614h1639v-194h-1639v194z" />
    <glyph glyph-name="quoteleft" unicode="&#x2018;" horiz-adv-x="475" 
d="M340 942h-246v307q0 185 225 185h62v-123h-74q-90 0 -90 -62q0 -30 19 -45.5t51 -15.5h53v-246z" />
    <glyph glyph-name="quoteright" unicode="&#x2019;" horiz-adv-x="475" 
d="M135 1434h246v-308q0 -184 -225 -184h-62v123h74q90 0 90 61q0 30 -18.5 46t-51.5 16h-53v246z" />
    <glyph glyph-name="quotesinglbase" unicode="&#x201a;" horiz-adv-x="475" 
d="M135 246h246v-307q0 -185 -225 -185h-62v123h74q90 0 90 62q0 61 -70 61h-53v246z" />
    <glyph glyph-name="quotedblleft" unicode="&#x201c;" horiz-adv-x="843" 
d="M94 942v307q0 185 225 185h62v-123h-74q-90 0 -90 -62q0 -30 19 -45.5t51 -15.5h53v-246h-246zM463 942v307q0 185 225 185h62v-123h-74q-90 0 -90 -62q0 -30 18.5 -45.5t50.5 -15.5h54v-246h-246z" />
    <glyph glyph-name="quotedblright" unicode="&#x201d;" horiz-adv-x="843" 
d="M94 942v123h74q90 0 90 61q0 30 -18.5 46t-51.5 16h-53v246h246v-308q0 -184 -225 -184h-62zM463 942v123h74q90 0 90 61q0 30 -18.5 46t-51.5 16h-53v246h246v-308q0 -184 -226 -184h-61z" />
    <glyph glyph-name="quotedblbase" unicode="&#x201e;" horiz-adv-x="860" 
d="M82 -246v123h74q90 0 90 62q0 61 -70 61h-53v246h246v-307q0 -185 -226 -185h-61zM451 -246v123h73q90 0 90 62q0 61 -69 61h-53v246h245v-307q0 -185 -225 -185h-61z" />
    <glyph glyph-name="dagger" unicode="&#x2020;" horiz-adv-x="819" 
d="M328 553v584h-226v163h226v248h164v-248h225v-163h-225v-584h-164z" />
    <glyph glyph-name="daggerdbl" unicode="&#x2021;" horiz-adv-x="819" 
d="M328 553v276h-226v164h226v144h-226v163h226v248h164v-248h225v-163h-225v-144h225v-164h-225v-276h-164z" />
    <glyph glyph-name="bullet" unicode="&#x2022;" horiz-adv-x="520" 
d="M127 727h266v-266h-266v266z" />
    <glyph glyph-name="ellipsis" unicode="&#x2026;" horiz-adv-x="1310" 
d="M127 246h246v-246h-246v246zM532 246h246v-246h-246v246zM938 246h246v-246h-246v246z" />
    <glyph glyph-name="perthousand" unicode="&#x2030;" horiz-adv-x="2293" 
d="M74 1092q0 157 100.5 259.5t261.5 102.5t262 -102.5t101 -259.5t-101 -260t-262 -103t-261.5 103t-100.5 260zM623 1092q0 91 -51 144.5t-136 53.5t-135.5 -53.5t-50.5 -144.5t50.5 -145t135.5 -54t136 54t51 145zM420 164l-121 123l1022 979l121 -123zM946 342
q0 157 101 260t262 103q178 0 274 -146q96 146 275 146q161 0 261.5 -103t100.5 -260t-100.5 -259.5t-261.5 -102.5q-175 0 -275 145q-100 -145 -274 -145q-161 0 -262 102.5t-101 259.5zM1495 342q0 91 -50.5 145t-135.5 54t-136 -54t-51 -145t51 -145t136 -54t135.5 54
t50.5 145zM2044 342q0 91 -50.5 145t-135.5 54t-136 -54t-51 -145t51 -145t136 -54t135.5 54t50.5 145z" />
    <glyph glyph-name="guilsinglleft" unicode="&#x2039;" horiz-adv-x="667" 
d="M528 174l-430 410v61l430 410h33v-226l-242 -198v-33l242 -199v-225h-33z" />
    <glyph glyph-name="guilsinglright" unicode="&#x203a;" horiz-adv-x="667" 
d="M106 174v225l242 199v33l-242 198v226h33l430 -410v-61l-430 -410h-33z" />
    <glyph glyph-name="uni203D" unicode="&#x203d;" horiz-adv-x="1171" 
d="M444 369v868q-77 -32 -119 -98.5t-42 -155.5t59 -172l-176 -106q-88 131 -88 282q0 167 99 288.5t267 162.5v98h205v-86q105 -9 190.5 -48.5t139 -98.5t82.5 -131t29 -148q0 -147 -60 -239.5t-176 -153.5l-41 -21q-53 -27 -77 -42.5t-46 -39.5t-30 -53t-11 -76v-30h-205z
M721 766q83 43 123.5 101t40.5 147q0 100 -65.5 164.5t-170.5 76.5v-544q23 30 72 55zM424 0v246h246v-246h-246z" />
    <glyph glyph-name="uni2042" unicode="&#x2042;" horiz-adv-x="1892" 
d="M858 1485h176v-144l-65 -196l176 129l137 45l53 -168l-135 -45h-219l176 -121l84 -117l-145 -104l-84 117l-66 211l-65 -211l-84 -117l-146 104l84 117l176 121h-219l-135 45l53 168l138 -45l176 -129l-66 196v144zM543 -51h-176v143l65 197l-176 -129l-137 -45l-53 168
l135 45h219l-176 121l-84 116l145 105l84 -117l66 -211l65 211l84 117l146 -105l-84 -116l-177 -121h220l135 -45l-53 -168l-138 45l-176 129l66 -197v-143zM1526 -51h-176v143l65 197l-176 -129l-137 -45l-53 168l135 45h219l-176 121l-84 116l145 105l84 -117l66 -211
l65 211l84 117l146 -105l-84 -116l-176 -121h219l135 -45l-53 -168l-138 45l-176 129l66 -197v-143z" />
    <glyph glyph-name="fraction" unicode="&#x2044;" horiz-adv-x="292" 
d="M598 1227l104 -103l-1007 -960l-105 102z" />
    <glyph glyph-name="uni2051" unicode="&#x2051;" horiz-adv-x="909" 
d="M543 -51h-176v143l65 197l-176 -129l-137 -45l-53 168l135 45h219l-176 121l-84 116l145 105l84 -117l66 -211l65 211l84 117l146 -105l-84 -116l-177 -121h220l135 -45l-53 -168l-138 45l-176 129l66 -197v-143zM367 1485h176v-144l-66 -196l176 129l138 45l53 -168
l-135 -45h-220l177 -121l84 -117l-146 -104l-84 117l-65 211l-66 -211l-84 -117l-145 104l84 117l176 121h-219l-135 45l53 168l137 -45l176 -129l-65 196v144z" />
    <glyph glyph-name="uni2055" unicode="&#x2055;" horiz-adv-x="1638" 
d="M1556 819v-205h-491l348 -348l-143 -143l-348 348v-491h-205v491l-348 -348l-144 143l348 348h-491v205h491l-348 348l144 144l348 -348v491h205v-491l348 348l143 -144l-348 -348h491z" />
    <glyph glyph-name="uni2070" unicode="&#x2070;" horiz-adv-x="757" 
d="M70 1085q0 162 86 259.5t223 97.5t223 -97.5t86 -259.5t-86 -259t-223 -97t-223 97t-86 259zM541 1085q0 108 -44 167t-118 59t-118 -59t-44 -167t44 -166.5t118 -58.5t118 58.5t44 166.5z" />
    <glyph glyph-name="uni2074" unicode="&#x2074;" horiz-adv-x="622" 
d="M379 737v148h-330v147q74 74 105.5 155t31.5 202v45h144v-45q0 -237 -123 -371h172v201h143v-201h84v-133h-84v-148h-143z" />
    <glyph glyph-name="uni2075" unicode="&#x2075;" horiz-adv-x="649" 
d="M543 1434v-134h-326q0 -83 -22 -163q20 32 61.5 51.5t89.5 19.5q102 0 168 -61.5t66 -165.5q0 -117 -67 -184.5t-187 -67.5q-106 0 -179.5 56t-83.5 153l144 33q6 -48 39 -78.5t80 -30.5q52 0 81 31t29 80q0 48 -29.5 77t-82.5 29q-32 0 -61.5 -18t-41.5 -43l-147 41
q30 197 30 375h439z" />
    <glyph glyph-name="uni2076" unicode="&#x2076;" horiz-adv-x="667" 
d="M70 1090q0 159 73.5 255.5t206.5 96.5q99 0 163 -47.5t81 -132.5l-121 -33q-7 42 -42 66t-85 24q-64 0 -102.5 -53.5t-38.5 -153.5v-12q44 92 166 92q100 0 163.5 -61t63.5 -158q0 -108 -69.5 -176t-174.5 -68q-135 0 -209.5 96t-74.5 265zM467 965q0 51 -31.5 81.5
t-85.5 30.5q-50 0 -83.5 -31.5t-33.5 -80.5q0 -51 33 -82t84 -31t84 32t33 81z" />
    <glyph glyph-name="uni2077" unicode="&#x2077;" horiz-adv-x="585" 
d="M53 1434h479v-123q-110 -76 -163.5 -174t-53.5 -240q0 -67 13 -160h-144q-8 65 -8 131q0 279 178 432h-301v134z" />
    <glyph glyph-name="uni2078" unicode="&#x2078;" horiz-adv-x="659" 
d="M61 946q0 130 125 182q-84 50 -84 136q0 80 62 129t166 49t165.5 -49t61.5 -129q0 -86 -84 -136q125 -52 125 -182q0 -93 -73 -155t-195 -62t-195.5 62t-73.5 155zM430 1260q0 37 -27.5 58t-72.5 21t-73 -21t-28 -58t28 -58.5t73 -21.5t72.5 21t27.5 59zM455 961
q0 49 -35.5 76.5t-89.5 27.5t-89.5 -27.5t-35.5 -76.5t36 -77t89 -28t89 28t36 77z" />
    <glyph glyph-name="uni2079" unicode="&#x2079;" horiz-adv-x="681" 
d="M70 928l116 37q27 -113 142 -113q149 0 149 219v12q-47 -96 -166 -96q-101 0 -162 63.5t-61 153.5q0 107 69.5 172.5t174.5 65.5q133 0 206.5 -91.5t73.5 -256.5q0 -164 -73.5 -264.5t-210.5 -100.5q-105 0 -172 53t-86 146zM453 1210q0 49 -32.5 79t-84.5 30t-84.5 -30
t-32.5 -79t32.5 -78.5t84.5 -29.5t84.5 29.5t32.5 78.5z" />
    <glyph glyph-name="uni2080" unicode="&#x2080;" horiz-adv-x="757" 
d="M70 -57q0 162 86 259t223 97t223 -97t86 -259t-86 -259.5t-223 -97.5t-223 97.5t-86 259.5zM541 -57q0 108 -44 166.5t-118 58.5t-118 -58.5t-44 -166.5t44 -167t118 -59t118 59t44 167z" />
    <glyph glyph-name="uni2081" unicode="&#x2081;" horiz-adv-x="440" 
d="M219 -406v502q-19 -49 -67.5 -79t-102.5 -35l-20 157q86 6 137 45t63 107h133v-697h-143z" />
    <glyph glyph-name="uni2082" unicode="&#x2082;" horiz-adv-x="606" 
d="M49 80q0 97 69 158t179 61q121 0 186.5 -58t65.5 -159q0 -64 -22.5 -112t-58.5 -79t-99 -65q-41 -25 -56 -35.5t-32.5 -27t-26.5 -35.5h295v-134h-496q0 76 22.5 132.5t62 95t104.5 76.5q97 58 129 92t32 86q0 43 -28.5 67.5t-81.5 24.5q-46 0 -75.5 -25.5t-29.5 -62.5
t29 -74l-111 -74q-57 57 -57 148z" />
    <glyph glyph-name="uni2083" unicode="&#x2083;" horiz-adv-x="636" 
d="M53 -207l133 62q8 -61 42 -95t89 -34q47 0 79 29t32 73q0 47 -28.5 76.5t-71.5 29.5q-49 0 -78 -26l-82 100l178 150h-256v133h451v-113l-152 -127q74 -2 130 -61.5t56 -159.5q0 -108 -72.5 -176t-183.5 -68q-110 0 -178.5 55.5t-87.5 151.5z" />
    <glyph glyph-name="uni2084" unicode="&#x2084;" horiz-adv-x="622" 
d="M379 -406v148h-330v147q74 74 105.5 155t31.5 202v45h144v-45q0 -237 -123 -371h172v201h143v-201h84v-133h-84v-148h-143z" />
    <glyph glyph-name="uni2085" unicode="&#x2085;" horiz-adv-x="649" 
d="M543 291v-133h-326q0 -84 -22 -164q20 32 62 52t89 20q102 0 168 -62t66 -166q0 -117 -67 -184.5t-187 -67.5q-106 0 -179.5 56t-83.5 153l144 33q6 -48 39 -78.5t80 -30.5q52 0 81 31t29 80q0 46 -30 76.5t-82 30.5q-32 0 -61.5 -18.5t-41.5 -43.5l-147 41
q30 196 30 375h439z" />
    <glyph glyph-name="uni2086" unicode="&#x2086;" horiz-adv-x="667" 
d="M70 -53q0 159 73.5 255.5t206.5 96.5q99 0 163 -47.5t81 -132.5l-121 -33q-7 42 -42 66t-85 24q-64 0 -102.5 -53.5t-38.5 -153.5v-12q44 92 166 92q100 0 163.5 -61t63.5 -158q0 -108 -69.5 -176t-174.5 -68q-135 0 -209.5 96t-74.5 265zM467 -178q0 51 -31.5 81.5
t-85.5 30.5q-50 0 -83.5 -31.5t-33.5 -80.5q0 -51 33 -82t84 -31t84 32t33 81z" />
    <glyph glyph-name="uni2087" unicode="&#x2087;" horiz-adv-x="585" 
d="M53 291h479v-123q-110 -76 -163.5 -174t-53.5 -240q0 -67 13 -160h-144q-8 65 -8 132q0 279 178 432h-301v133z" />
    <glyph glyph-name="uni2088" unicode="&#x2088;" horiz-adv-x="659" 
d="M61 -197q0 131 125 183q-84 50 -84 135q0 80 62 129t166 49t165.5 -49t61.5 -129q0 -85 -84 -135q125 -52 125 -183q0 -93 -73 -155t-195 -62t-195.5 62t-73.5 155zM430 117q0 38 -27.5 59t-72.5 21t-73 -21.5t-28 -58.5t28 -58.5t73 -21.5t72.5 21t27.5 59zM455 -182
q0 49 -35.5 76.5t-89.5 27.5t-89.5 -27.5t-35.5 -76.5t36 -77t89 -28t89 28t36 77z" />
    <glyph glyph-name="uni2089" unicode="&#x2089;" horiz-adv-x="681" 
d="M70 -215l116 37q27 -113 142 -113q149 0 149 219v13q-48 -97 -166 -97q-101 0 -162 63.5t-61 153.5q0 107 69.5 172.5t174.5 65.5q133 0 206.5 -91.5t73.5 -256.5q0 -164 -73.5 -264.5t-210.5 -100.5q-105 0 -172 53t-86 146zM453 68q0 49 -32.5 78.5t-84.5 29.5
t-84.5 -29.5t-32.5 -78.5t32.5 -79t84.5 -30t84.5 30t32.5 79z" />
    <glyph glyph-name="franc" unicode="&#x20a3;" horiz-adv-x="1314" 
d="M1217 1229h-809v-420h747v-205h-747v-184h317v-195h-317v-225h-215v225h-185v195h185v1014h1024v-205z" />
    <glyph glyph-name="lira" unicode="&#x20a4;" horiz-adv-x="1304" 
d="M1055 307l194 -102q-95 -225 -348 -225q-99 0 -170.5 31.5t-136.5 92.5q-81 -124 -246 -124q-127 0 -196.5 68t-69.5 177q0 101 72 168.5t184 67.5q87 0 149 -33q-6 47 -20 74h-324v194h191l-62 82h-190v195h115q-2 10 -2 51q0 130 66 229.5t174.5 150t240.5 50.5
q201 0 330.5 -107t160.5 -292l-225 -72q-18 126 -85 196t-181 70t-185 -63t-71 -182q0 -25 2 -31h356v-195h-274l59 -82h277v-194h-185q11 -64 11 -103q0 -45 -7 -106q61 -58 110 -83.5t112 -25.5q67 0 109 29t65 94zM473 227q-61 49 -125 49q-43 0 -67.5 -19.5t-24.5 -51.5
q0 -33 24 -52.5t68 -19.5q91 0 125 94z" />
    <glyph glyph-name="uni20A9" unicode="&#x20a9;" horiz-adv-x="1933" 
d="M1909 829v-194h-236l-112 -635h-359l-117 635h-237l-117 -635h-358l-113 635h-235v194h200l-108 605h215l106 -605h244l111 605h348l110 -605h244l107 605h215l-109 -605h201zM885 829h164l-82 451zM557 154l88 481h-172zM1376 154l84 481h-172z" />
    <glyph glyph-name="dong" unicode="&#x20ab;" horiz-adv-x="1261" 
d="M1241 1300v-194h-184v-1106h-215v164q-44 -90 -126 -137t-192 -47q-202 0 -326 140t-124 359q0 225 124 368.5t326 143.5q114 0 198 -52t120 -140v307h-353v194h353v134h215v-134h184zM850 479q0 138 -83.5 228t-197.5 90q-122 0 -201 -88.5t-79 -229.5q0 -139 80 -225
q84 -84 200 -84q115 0 198 85.5t83 223.5zM135 -338v195h922v-195h-922z" />
    <glyph glyph-name="Euro" unicode="&#x20ac;" horiz-adv-x="1724" 
d="M1454 635l205 -82q-57 -257 -248.5 -415t-478.5 -158q-258 0 -438 131q-179 130 -250 350h-211v194h174q-2 14 -2 62q0 47 2 61h-174v195h213q73 216 258 348q189 133 428 133q133 0 245 -38.5t190.5 -105.5t131.5 -152.5t78 -184.5l-205 -92q-33 167 -147.5 267.5
t-292.5 100.5q-148 0 -266.5 -73.5t-180.5 -202.5h469v-195h-522q-2 -14 -2 -61q0 -48 2 -62h522v-194h-475q60 -133 178.5 -205t274.5 -72q224 0 356 129t166 322z" />
    <glyph glyph-name="uni20AE" unicode="&#x20ae;" horiz-adv-x="1374" 
d="M1317 1229h-522v-246l159 84l88 -174l-247 -129v-111l159 84l88 -174l-247 -129v-434h-215v319l-166 -86l-88 175l254 133v108l-166 -86l-88 174l254 133v359h-523v205h1260v-205z" />
    <glyph glyph-name="uni20B4" unicode="&#x20b4;" horiz-adv-x="1388" 
d="M1223 932h108v-195h-1270v195h908q55 49 55 133q0 79 -72 131.5t-184 52.5q-257 0 -358 -235l-195 102q84 172 220.5 255t332.5 83q213 0 347 -106.5t134 -272.5q0 -90 -26 -143zM61 461v194h1270v-194h-889q-8 -13 -8 -51q0 -100 92.5 -163t245.5 -63q225 0 348 185
l174 -133q-179 -256 -532 -256q-244 0 -398.5 117t-154.5 302q0 16 4 62h-152z" />
    <glyph glyph-name="uni20B8" unicode="&#x20b8;" horiz-adv-x="1374" 
d="M57 1239v195h1260v-195h-1260zM580 0v942h-523v195h1260v-195h-522v-942h-215z" />
    <glyph glyph-name="uni20B9" unicode="&#x20b9;" horiz-adv-x="1146" 
d="M1073 1239h-172q33 -54 47 -123h125v-194h-123q-36 -182 -186 -269q93 -42 137.5 -118t48.5 -209q5 -129 18 -187.5t54 -105.5v-33h-246q-26 51 -39 119q-12 68 -12 209q0 145 -65 205.5t-203 60.5h-359v215h379q175 0 228 113h-607v194h600q-53 103 -221 103h-379v215
h975v-195z" />
    <glyph glyph-name="uni20BA" unicode="&#x20ba;" horiz-adv-x="1361" 
d="M1292 492q0 -216 -133 -354t-368 -138h-492v387l-158 -82l-88 174l246 129v109l-158 -82l-88 174l246 129v496h215v-383l168 88l88 -174l-256 -136v-108l168 88l88 -174l-256 -135v-295h277q117 0 201.5 76.5t84.5 189.5q0 103 -57 180l192 103q80 -121 80 -262z" />
    <glyph glyph-name="uni20BD" unicode="&#x20bd;" horiz-adv-x="1388" 
d="M1298 1004q0 -85 -30.5 -162t-87.5 -137t-145.5 -96t-196.5 -36h-430v-143h337v-194h-337v-236h-215v236h-185v194h185v1004h645q215 0 337.5 -124t122.5 -306zM1073 1004q0 101 -66 163t-180 62h-419v-451h419q114 0 180 62.5t66 163.5z" />
    <glyph glyph-name="uni2113" unicode="&#x2113;" horiz-adv-x="1181" 
d="M799 436l190 -37q-35 -197 -149 -308t-281 -111q-150 0 -242.5 90t-117.5 254l-115 -23l-31 182q51 6 140 27q5 180 58.5 354.5t136 305t192 209.5t221.5 75q145 0 218 -77t73 -226q0 -240 -192 -447t-507 -323q10 -102 56.5 -159.5t115.5 -57.5q91 0 152.5 71t81.5 201z
M397 573q231 94 361.5 245t130.5 325q0 61 -26.5 94t-74.5 33q-85 4 -171 -93.5t-146 -261t-74 -342.5z" />
    <glyph glyph-name="uni2116" unicode="&#x2116;" horiz-adv-x="2680" 
d="M1608 948q0 217 140.5 361.5t358.5 144.5t359 -144.5t141 -361.5t-141 -361.5t-359 -144.5t-358.5 144.5t-140.5 361.5zM373 1270v-1270h-226v1434h392l667 -1272v1272h226v-1434h-392zM2392 948q0 136 -81 224t-204 88t-203.5 -88t-80.5 -224t80.5 -223.5t203.5 -87.5
t204 87.5t81 223.5zM1677 195h860v-195h-860v195z" />
    <glyph glyph-name="uni2117" unicode="&#x2117;" horiz-adv-x="1097" 
d="M90 995q0 190 133.5 324.5t325.5 134.5t325.5 -134.5t133.5 -324.5q0 -124 -60.5 -229.5t-166 -167t-232.5 -61.5t-232.5 61.5t-166 167t-60.5 229.5zM905 995q0 149 -102.5 254t-253.5 105t-253.5 -105t-102.5 -254t102.5 -253.5t253.5 -104.5t253.5 104.5t102.5 253.5z
M358 739v514h256q79 0 122.5 -40.5t43.5 -114.5t-43.5 -115t-122.5 -41h-155v-203h-101zM459 1030h143q35 0 55.5 18t20.5 50t-20 49.5t-56 17.5h-143v-135z" />
    <glyph glyph-name="uni2120" unicode="&#x2120;" horiz-adv-x="1273" 
d="M70 1065l88 53q27 -112 139 -112q43 0 70.5 18t27.5 47q0 30 -25.5 47.5t-86.5 24.5q-177 24 -177 153q0 62 53 104t134 42q155 0 192 -123l-84 -47q-12 42 -37.5 61t-70.5 19q-35 0 -60.5 -17.5t-25.5 -40.5q0 -52 117 -67q92 -12 135 -48.5t43 -107.5q0 -72 -56.5 -116
t-148.5 -44q-84 0 -144 39t-83 115zM586 920v514h184l125 -424l125 424h184v-514h-102v444l-137 -444h-140l-137 444v-444h-102z" />
    <glyph glyph-name="trademark" unicode="&#x2122;" horiz-adv-x="1267" 
d="M248 920v419h-178v95h456v-95h-176v-419h-102zM580 920v514h184l125 -424l125 424h184v-514h-102v444l-138 -444h-139l-137 444v-444h-102z" />
    <glyph glyph-name="uni2126" unicode="&#x2126;" horiz-adv-x="1605" 
d="M1520 778q0 -343 -308 -573h256v-205h-583v195q169 88 282 231q117 144 117 332q0 211 -135 346t-346 135t-346 -135t-135 -346q0 -188 114 -332q116 -143 285 -231v-195h-584v205h256q-307 229 -307 573q-2 140 52 266t149 216.5t229.5 143t286.5 50.5
q208 0 372.5 -88.5t254.5 -242.5t90 -345z" />
    <glyph glyph-name="estimated" unicode="&#x212e;" horiz-adv-x="1611" 
d="M1513 655h-1146v-245q69 -117 188.5 -181.5t271.5 -64.5q187 0 321.5 93t190.5 255l174 -72q-72 -206 -256 -333t-430 -127q-154 -3 -292.5 55.5t-236 158.5t-154 237t-54.5 286q-3 152 53 289.5t154 237t236.5 156.5t293.5 54q142 2 272 -52t223.5 -146.5t147.5 -221.5
t52 -270q0 -60 -9 -109zM367 1024v-184h880v184q-61 114 -177.5 180t-252.5 66q-148 0 -264.5 -64t-185.5 -182z" />
    <glyph glyph-name="uni2153" unicode="&#x2153;" horiz-adv-x="1370" 
d="M219 737v502q-19 -49 -67.5 -79.5t-102.5 -35.5l-20 158q86 6 137 45t63 107h133v-697h-143zM1038 1227l105 -103l-1008 -960l-104 102zM786 199l134 61q8 -61 42 -95t89 -34q47 0 78.5 29t31.5 73q0 47 -28.5 77t-71.5 30q-48 0 -78 -27l-82 101l178 149h-256v133h451
v-112l-152 -127q74 -2 130.5 -61.5t56.5 -159.5q0 -108 -72.5 -176t-183.5 -68q-110 0 -179 55.5t-88 151.5z" />
    <glyph glyph-name="uni2154" unicode="&#x2154;" horiz-adv-x="1536" 
d="M49 1223q0 97 69 158t179 61q121 0 186.5 -58t65.5 -159q0 -64 -22.5 -112t-58.5 -79t-99 -65q-39 -24 -55.5 -35.5t-33.5 -28t-26 -35.5h295v-133h-496q0 111 45 178t144 125q96 58 128.5 92.5t32.5 86.5q0 43 -28.5 67.5t-81.5 24.5q-46 0 -75.5 -25.5t-29.5 -62.5
t29 -74l-111 -74q-57 57 -57 148zM1204 1227l105 -103l-1008 -960l-104 102zM952 199l133 61q8 -60 42.5 -94.5t89.5 -34.5q47 0 78.5 29t31.5 73q0 47 -28.5 77t-71.5 30q-48 0 -78 -27l-82 101l178 149h-256v133h451v-112l-152 -127q74 -2 130.5 -61.5t56.5 -159.5
q0 -108 -72.5 -176t-183.5 -68q-110 0 -179 55.5t-88 151.5z" />
    <glyph glyph-name="oneeighth" unicode="&#x215b;" horiz-adv-x="1392" 
d="M219 737v502q-19 -49 -67.5 -79.5t-102.5 -35.5l-20 158q86 6 137 45t63 107h133v-697h-143zM1038 1227l105 -103l-1008 -960l-104 102zM795 209q0 130 125 182q-84 50 -84 135q0 80 62 129.5t165 49.5t165 -49.5t62 -129.5q0 -85 -84 -135q125 -52 125 -182
q0 -93 -73 -155t-195 -62t-195 62t-73 155zM1163 522q0 38 -27.5 59t-72.5 21t-72.5 -21t-27.5 -59t27.5 -59t72.5 -21t72.5 21t27.5 59zM1188 223q0 49 -36 77t-89 28t-89 -28t-36 -77t35.5 -76.5t89.5 -27.5t89.5 27.5t35.5 76.5z" />
    <glyph glyph-name="threeeighths" unicode="&#x215c;" horiz-adv-x="1589" 
d="M53 936l133 61q8 -61 42 -95t89 -34q47 0 79 29.5t32 73.5q0 47 -28.5 76.5t-71.5 29.5q-49 0 -78 -26l-82 100l178 149h-256v134h451v-113l-152 -127q74 -2 130 -61.5t56 -159.5q0 -108 -72.5 -176t-183.5 -68q-110 0 -178.5 55.5t-87.5 151.5zM1235 1227l104 -103
l-1007 -960l-105 102zM991 209q0 130 125 182q-84 50 -84 135q0 80 62 129.5t166 49.5q103 0 165 -49.5t62 -129.5q0 -85 -84 -135q125 -52 125 -182q0 -93 -73 -155t-195 -62t-195.5 62t-73.5 155zM1360 522q0 38 -27.5 59t-72.5 21t-73 -21.5t-28 -58.5t28 -58.5t73 -21.5
t72.5 21t27.5 59zM1384 223q0 49 -35.5 77t-88.5 28t-89 -28t-36 -77t35.5 -76.5t89.5 -27.5q53 0 88.5 27.5t35.5 76.5z" />
    <glyph glyph-name="fiveeighths" unicode="&#x215d;" horiz-adv-x="1601" 
d="M543 1434v-134h-326q0 -83 -22 -163q20 32 61.5 51.5t89.5 19.5q102 0 168 -61.5t66 -165.5q0 -117 -67 -184.5t-187 -67.5q-106 0 -179.5 56t-83.5 153l144 33q6 -48 39 -78.5t80 -30.5q52 0 81 31t29 80q0 48 -29.5 77t-82.5 29q-32 0 -61.5 -18t-41.5 -43l-147 41
q30 197 30 375h439zM1247 1227l105 -103l-1008 -960l-104 102zM1004 209q0 130 124 182q-84 50 -84 135q0 80 62 129.5t166 49.5q103 0 165 -49.5t62 -129.5q0 -85 -84 -135q125 -52 125 -182q0 -93 -73 -155t-195 -62t-195 62t-73 155zM1372 522q0 38 -27.5 59t-72.5 21
t-73 -21.5t-28 -58.5t28 -58.5t73 -21.5t72.5 21t27.5 59zM1397 223q0 49 -36 77t-89 28t-89 -28t-36 -77t35.5 -76.5t89.5 -27.5t89.5 27.5t35.5 76.5z" />
    <glyph glyph-name="seveneighths" unicode="&#x215e;" horiz-adv-x="1538" 
d="M53 1434h479v-123q-110 -76 -163.5 -174t-53.5 -240q0 -67 13 -160h-144q-8 65 -8 131q0 279 178 432h-301v134zM1184 1227l104 -103l-1007 -960l-105 102zM940 209q0 130 125 182q-84 50 -84 135q0 80 62 129.5t165 49.5q104 0 166 -49.5t62 -129.5q0 -85 -84 -135
q125 -52 125 -182q0 -93 -73.5 -155t-195.5 -62t-195 62t-73 155zM1309 522q0 37 -28 58.5t-73 21.5t-72.5 -21t-27.5 -59t27.5 -59t72.5 -21t73 21.5t28 58.5zM1333 223q0 49 -36 77t-89 28t-89 -28t-36 -77t35.5 -76.5t89.5 -27.5t89.5 27.5t35.5 76.5z" />
    <glyph glyph-name="uni2160" unicode="&#x2160;" horiz-adv-x="1208" 
d="M1126 215v-215h-1044v215h410v1004h-410v215h1044v-215h-409v-1004h409z" />
    <glyph glyph-name="uni2161" unicode="&#x2161;" horiz-adv-x="1843" 
d="M82 0v215h410v1004h-410v215h1679v-215h-409v-1004h409v-215h-1679zM717 215h409v1004h-409v-1004z" />
    <glyph glyph-name="uni2162" unicode="&#x2162;" horiz-adv-x="2478" 
d="M82 0v215h410v1004h-410v215h2314v-215h-409v-1004h409v-215h-2314zM717 215h409v1004h-409v-1004zM1352 215h409v1004h-409v-1004z" />
    <glyph glyph-name="uni2163" unicode="&#x2163;" horiz-adv-x="2478" 
d="M82 0v215h410v1004h-410v215h2314v-215h-266l-348 -1004h614v-215h-2314zM717 215h614l-348 1004h-266v-1004zM1556 205l338 1014h-675z" />
    <glyph glyph-name="uni2164" unicode="&#x2164;" horiz-adv-x="1843" 
d="M82 0v215h614l-348 1004h-266v215h1679v-215h-266l-348 -1004h614v-215h-1679zM922 205l338 1014h-676z" />
    <glyph glyph-name="uni2165" unicode="&#x2165;" horiz-adv-x="2478" 
d="M82 0v215h614l-348 1004h-266v215h2314v-215h-409v-1004h409v-215h-2314zM922 205l338 1014h-676zM1147 215h614v1004h-266z" />
    <glyph glyph-name="uni2166" unicode="&#x2166;" horiz-adv-x="3112" 
d="M82 0v215h614l-348 1004h-266v215h2949v-215h-410v-1004h410v-215h-2949zM922 205l338 1014h-676zM1147 215h614v1004h-266zM1987 215h409v1004h-409v-1004z" />
    <glyph glyph-name="uni2167" unicode="&#x2167;" horiz-adv-x="3747" 
d="M82 0v215h614l-348 1004h-266v215h3584v-215h-410v-1004h410v-215h-3584zM922 205l338 1014h-676zM1147 215h614v1004h-266zM1987 215h409v1004h-409v-1004zM2621 215h410v1004h-410v-1004z" />
    <glyph glyph-name="uni2168" unicode="&#x2168;" horiz-adv-x="2478" 
d="M82 0v215h410v1004h-410v215h2314v-215h-307l-389 -502l389 -502h307v-215h-2314zM717 215h307l389 502l-389 502h-307v-1004zM1556 881l246 338h-491zM1311 215h491l-246 338z" />
    <glyph glyph-name="uni2169" unicode="&#x2169;" horiz-adv-x="1843" 
d="M82 0v215h307l389 502l-389 502h-307v215h1679v-215h-307l-389 -502l389 -502h307v-215h-1679zM922 881l245 338h-491zM676 215h491l-245 338z" />
    <glyph glyph-name="uni216A" unicode="&#x216a;" horiz-adv-x="2478" 
d="M82 0v215h307l389 502l-389 502h-307v215h2314v-215h-409v-1004h409v-215h-2314zM922 881l245 338h-491zM1454 215h307v1004h-307l-389 -502zM676 215h491l-245 338z" />
    <glyph glyph-name="uni216B" unicode="&#x216b;" horiz-adv-x="3112" 
d="M82 0v215h307l389 502l-389 502h-307v215h2949v-215h-410v-1004h410v-215h-2949zM922 881l245 338h-491zM1454 215h307v1004h-307l-389 -502zM1987 215h409v1004h-409v-1004zM676 215h491l-245 338z" />
    <glyph glyph-name="uni216C" unicode="&#x216c;" horiz-adv-x="1495" 
d="M82 0v215h246v1004h-246v215h696v-215h-225v-1004h635v287h225v-502h-1331z" />
    <glyph glyph-name="uni216D" unicode="&#x216d;" horiz-adv-x="1617" 
d="M82 717q-3 154 52 292.5t149 236.5t223.5 154t271.5 54q169 0 298.5 -67t185.5 -179v226h204v-564h-194q-23 176 -145.5 277.5t-307.5 101.5q-225 0 -364.5 -145.5t-139.5 -386.5q0 -247 136 -390t358 -143q224 0 356 129t166 322l205 -82q-57 -257 -248.5 -415
t-478.5 -158q-211 -3 -379 94.5t-259 266.5t-89 376z" />
    <glyph glyph-name="uni216E" unicode="&#x216e;" horiz-adv-x="1628" 
d="M82 0v213h246v1008h-246v213h747q226 0 390 -94t245.5 -256.5t81.5 -376.5q0 -152 -48.5 -281.5t-138.5 -224t-226.5 -148t-303.5 -53.5h-747zM553 215h276q159 0 272 66.5t166.5 176t53.5 249.5q0 239 -126 375.5t-366 136.5h-276v-1004z" />
    <glyph glyph-name="uni216F" unicode="&#x216f;" horiz-adv-x="2293" 
d="M82 0v215h246v1004h-246v215h635l430 -1229l430 1229h635v-215h-246v-1004h246v-215h-717v215h246v1014l-441 -1229h-307l-440 1229v-1014h246v-215h-717z" />
    <glyph glyph-name="uni2180" unicode="&#x2180;" horiz-adv-x="2375" 
d="M82 707q0 214 81.5 376.5t245.5 256.5t390 94h778q226 0 390 -94t245.5 -256.5t81.5 -376.5q0 -152 -48.5 -281.5t-138.5 -224t-226.5 -148t-303.5 -53.5h-778q-167 0 -303.5 53.5t-226.5 148t-138.5 224t-48.5 281.5zM799 215h276v1004h-276q-240 0 -366 -136.5
t-126 -375.5q0 -140 53.5 -249.5t166.5 -176t272 -66.5zM1300 215h277q120 0 214.5 38t154.5 105.5t91 156t31 192.5q0 239 -125.5 375.5t-365.5 136.5h-277v-1004z" />
    </font>
</defs>
</svg>
